[Oyasumi]_Welcome_to_the_NHK!_19_[91ACA812].mkv


File Size168.0 MB (176,113,036 bytes)
DownloadAnonFiles | ClickNUpload | DownloadGG | DropAPK | MultiUp
  • BdUpload
  • DownAce
  • Fichier
  • FileCloud
  • Filerio
  • FilesCdn
  • IndiShare
  • Kbagi
  • Turbobit
  • UpToBox
  • Uppit
| ZippyShare
HashesCRC32: 91ACA812, MD5: 2398529D7533DF1C15E1B9AD8911469E, SHA1: E686D444D6410B23811D07011C764A9FFDC84C39, SHA256: 6DC85832CF25A48F024F7E38A5A8000853C4E39D6075820CC546E5E01978EAF7, ED2K: 0721CA70A05FD66BA8C1B741B9933E72
Screenshots
screenshotscreenshotscreenshotscreenshotscreenshot
Additional Info
General
Unique ID                                : 231285021463089114095358350307172352078 (0xADFFDFF653B234DA943FDF0ABE85004E)
Complete name                            : [Oyasumi]_Welcome_to_the_NHK!_19_[91ACA812].mkv
Format                                   : Matroska
Format version                           : Version 1
File size                                : 168 MiB
Duration                                 : 23 min 50 s
Overall bit rate mode                    : Variable
Overall bit rate                         : 985 kb/s
Encoded date                             : UTC 2006-11-19 08:37:14
Writing application                      : mkvmerge v1.8.0 ('Wise Up') built on Nov 10 2006 19:41:15
Writing library                          : libebml v0.7.7 + libmatroska v0.8.0

Video
ID                                       : 1
Format                                   : MPEG-4 Visual
Format profile                           : Advanced Simple@L5
Format settings                          : BVOP2
Format settings, BVOP                    : 2
Format settings, QPel                    : No
Format settings, GMC                     : No warppoints
Format settings, Matrix                  : Default (H.263)
Muxing mode                              : Packed bitstream
Codec ID                                 : V_MS/VFW/FOURCC / XVID
Codec ID/Hint                            : XviD
Duration                                 : 23 min 50 s
Bit rate                                 : 838 kb/s
Width                                    : 704 pixels
Height                                   : 400 pixels
Display aspect ratio                     : 16:9
Frame rate mode                          : Constant
Frame rate                               : 23.976 (23976/1000) FPS
Color space                              : YUV
Chroma subsampling                       : 4:2:0
Bit depth                                : 8 bits
Scan type                                : Progressive
Compression mode                         : Lossy
Bits/(Pixel*Frame)                       : 0.124
Stream size                              : 143 MiB (85%)
Title                                    : [Oyasumi] Welcome to the NHK - 19 (XviD)
Writing library                          : XviD 1.1.2 (UTC 2006-11-01)
Default                                  : Yes
Forced                                   : No

Audio
ID                                       : 2
Format                                   : Vorbis
Format settings, Floor                   : 1
Codec ID                                 : A_VORBIS
Duration                                 : 23 min 50 s
Bit rate mode                            : Variable
Bit rate                                 : 128 kb/s
Channel(s)                               : 2 channels
Sampling rate                            : 48.0 kHz
Compression mode                         : Lossy
Stream size                              : 21.8 MiB (13%)
Title                                    : Stereo Vorbis
Writing library                          : aoTuV Beta 4.51 (UTC 2005-11-17)
Language                                 : Japanese
Default                                  : Yes
Forced                                   : No

Menu
00:00:00.000                             : en:Opening
00:01:39.974                             : en:Welcome to the NHK 19: Welcome to the Bluebird!
00:22:10.037                             : en:Ending
00:23:39.876                             : en:Preview

Other Files in this Torrent
[Oyasumi]_Welcome_to_the_NHK!_19_[91ACA812].mkv
beta
Anime DDL+NZB mirror
Current Time: 02/12/2021 23:43



About/FAQs

Discord