[Oyasumi]_Welcome_to_the_NHK!_14_[DDA2F730].mkv


File Size171.7 MB (180,085,949 bytes)
DownloadAnonFiles | ClickNUpload | DownloadGG | DropAPK | MultiUp
  • BdUpload
  • DownAce
  • Fichier
  • FileCloud
  • Filerio
  • FilesCdn
  • IndiShare
  • Kbagi
  • Turbobit
  • UpToBox
  • Uppit
| ZippyShare
HashesCRC32: DDA2F730, MD5: E1B5BE5E48A0DD4E0D0B64A0868D01A7, SHA1: 5897886B1141124029968A313F781296FBF63E31, SHA256: 7F08600684E3706F23D0A1AAADDEE090C10C3E641CD304E347AAFF5A457EFE30, ED2K: DD7F8672E42D9CD06A54BA663DBC1639
Screenshots
screenshotscreenshotscreenshotscreenshotscreenshot
Additional Info
General
Unique ID                                : 221619285037615376096630287231480767156 (0xA6BA525CF282BA4C982820561A6022B4)
Complete name                            : [Oyasumi]_Welcome_to_the_NHK!_14_[DDA2F730].mkv
Format                                   : Matroska
Format version                           : Version 1
File size                                : 172 MiB
Duration                                 : 23 min 49 s
Overall bit rate mode                    : Variable
Overall bit rate                         : 1 007 kb/s
Encoded date                             : UTC 2006-10-12 20:09:39
Writing application                      : mkvmerge v1.7.0 ('What Do You Take Me For') built on Apr 28 2006 17:20:19
Writing library                          : libebml v0.7.7 + libmatroska v0.8.0

Video
ID                                       : 1
Format                                   : MPEG-4 Visual
Format profile                           : Advanced Simple@L5
Format settings                          : BVOP2
Format settings, BVOP                    : 2
Format settings, QPel                    : No
Format settings, GMC                     : No warppoints
Format settings, Matrix                  : Default (H.263)
Muxing mode                              : Packed bitstream
Codec ID                                 : V_MS/VFW/FOURCC / XVID
Codec ID/Hint                            : XviD
Duration                                 : 23 min 49 s
Bit rate                                 : 859 kb/s
Width                                    : 704 pixels
Height                                   : 400 pixels
Display aspect ratio                     : 16:9
Frame rate mode                          : Constant
Frame rate                               : 23.976 (24000/1001) FPS
Color space                              : YUV
Chroma subsampling                       : 4:2:0
Bit depth                                : 8 bits
Scan type                                : Progressive
Compression mode                         : Lossy
Bits/(Pixel*Frame)                       : 0.127
Stream size                              : 147 MiB (85%)
Title                                    : [Oyasumi] Welcome to the NHK - 14 (XviD)
Writing library                          : XviD 1.2.0.dev45 (UTC 2006-07-10)
Default                                  : Yes
Forced                                   : No

Audio
ID                                       : 2
Format                                   : Vorbis
Format settings, Floor                   : 1
Codec ID                                 : A_VORBIS
Duration                                 : 23 min 49 s
Bit rate mode                            : Variable
Bit rate                                 : 128 kb/s
Channel(s)                               : 2 channels
Sampling rate                            : 48.0 kHz
Compression mode                         : Lossy
Stream size                              : 21.8 MiB (13%)
Title                                    : Stereo Vorbis
Writing library                          : aoTuV Beta 4.51 (UTC 2005-11-17)
Language                                 : Japanese
Default                                  : Yes
Forced                                   : No

Menu
00:00:00.000                             : en:Opening
00:01:39.933                             : en:Welcome to the NHK 14: Welcome to Reality!
00:22:10.037                             : en:Ending
00:23:39.918                             : en:Preview

Other Files in this Torrent
[Oyasumi]_Welcome_to_the_NHK!_14_[DDA2F730].mkv
beta
Anime DDL+NZB mirror
Current Time: 27/09/2022 18:29



About/FAQs

Discord