[Oyasumi]_Welcome_to_the_NHK!_21_[F0632EE4].mkv


File Size170.4 MB (178,725,473 bytes)
DownloadAnonFiles | ClickNUpload | DownloadGG | DropAPK | MultiUp
  • BdUpload
  • DownAce
  • Fichier
  • FileCloud
  • Filerio
  • FilesCdn
  • IndiShare
  • Kbagi
  • Turbobit
  • UpToBox
  • Uppit
| ZippyShare
HashesCRC32: F0632EE4, MD5: ACB25D2925E5D78B85C68D245592005A, SHA1: A2961DAA28AA8A0B44676991A3F260003496EEAD, SHA256: 3277FFF7F1201A4FE3D39EBE33339DB4CC9AC29F3705CEA95A427044B286BCBD, ED2K: 4E1E5D361A5B5BAF0DF941B21D001E30
Screenshots
screenshotscreenshotscreenshotscreenshotscreenshot
Additional Info
General
Unique ID                                : 192654457788477990896608355639710530320 (0x90EFE61F7440A34D9867F12F53CD3B10)
Complete name                            : [Oyasumi]_Welcome_to_the_NHK!_21_[F0632EE4].mkv
Format                                   : Matroska
Format version                           : Version 1
File size                                : 170 MiB
Duration                                 : 23 min 49 s
Overall bit rate mode                    : Variable
Overall bit rate                         : 1 000 kb/s
Encoded date                             : UTC 2006-11-30 13:45:15
Writing application                      : mkvmerge v1.8.0 ('Wise Up') built on Nov 10 2006 19:41:15
Writing library                          : libebml v0.7.7 + libmatroska v0.8.0

Video
ID                                       : 1
Format                                   : MPEG-4 Visual
Format profile                           : Advanced Simple@L5
Format settings                          : BVOP2
Format settings, BVOP                    : 2
Format settings, QPel                    : No
Format settings, GMC                     : No warppoints
Format settings, Matrix                  : Default (H.263)
Muxing mode                              : Packed bitstream
Codec ID                                 : V_MS/VFW/FOURCC / XVID
Codec ID/Hint                            : XviD
Duration                                 : 23 min 49 s
Bit rate                                 : 852 kb/s
Width                                    : 704 pixels
Height                                   : 400 pixels
Display aspect ratio                     : 16:9
Frame rate mode                          : Constant
Frame rate                               : 23.976 (23976/1000) FPS
Color space                              : YUV
Chroma subsampling                       : 4:2:0
Bit depth                                : 8 bits
Scan type                                : Progressive
Compression mode                         : Lossy
Bits/(Pixel*Frame)                       : 0.126
Stream size                              : 145 MiB (85%)
Title                                    : [Oyasumi] Welcome to the NHK -  21 (XviD)
Writing library                          : XviD 1.1.2 (UTC 2006-11-01)
Default                                  : Yes
Forced                                   : No

Audio
ID                                       : 2
Format                                   : Vorbis
Format settings, Floor                   : 1
Codec ID                                 : A_VORBIS
Duration                                 : 23 min 49 s
Bit rate mode                            : Variable
Bit rate                                 : 128 kb/s
Channel(s)                               : 2 channels
Sampling rate                            : 48.0 kHz
Compression mode                         : Lossy
Stream size                              : 21.8 MiB (13%)
Title                                    : Stereo Vorbis
Writing library                          : aoTuV Beta 4.51 (UTC 2005-11-17)
Language                                 : Japanese
Default                                  : Yes
Forced                                   : No

Menu
00:00:00.000                             : en:Opening
00:01:39.933                             : en:Welcome to the NHK 21: Welcome to the Reset!
00:22:09.703                             : en:Ending
00:23:39.876                             : en:Preview

Other Files in this Torrent
[Oyasumi]_Welcome_to_the_NHK!_21_[F0632EE4].mkv
beta
Anime DDL+NZB mirror
Current Time: 02/12/2021 23:04



About/FAQs

Discord