[Oyasumi]_Welcome_to_the_NHK!_07_[3D1C3D8F].mkv


File Size171.0 MB (179,337,358 bytes)
DownloadAnonFiles | ClickNUpload | DownloadGG | DropAPK | MultiUp
  • BdUpload
  • DownAce
  • Fichier
  • FileCloud
  • Filerio
  • FilesCdn
  • IndiShare
  • Kbagi
  • Turbobit
  • UpToBox
  • Uppit
| ZippyShare
HashesCRC32: 3D1C3D8F, MD5: 767B392DEC30269155EB73F2F0F1E564, SHA1: 0DD9466BEFC667EFB72DA193ED0F8BE26F2885E6, SHA256: 31BF1062CF7E03214504E71EA4EC9B2E409AF84F8AB0F250AC56B6365863ACA9, ED2K: DB0EF1D6C3AB34C869CD17B11D6EF0DB
Screenshots
screenshotscreenshotscreenshotscreenshotscreenshot
Additional Info
General
Unique ID                                : 241344217476475198673352798842822605067 (0xB591349DE4C1E1C2A227873C4040390B)
Complete name                            : [Oyasumi]_Welcome_to_the_NHK!_07_[3D1C3D8F].mkv
Format                                   : Matroska
Format version                           : Version 1
File size                                : 171 MiB
Duration                                 : 23 min 50 s
Overall bit rate mode                    : Variable
Overall bit rate                         : 1 003 kb/s
Encoded date                             : UTC 2006-08-25 01:09:02
Writing application                      : mkvmerge v1.7.0 ('What Do You Take Me For') built on Apr 28 2006 17:20:19
Writing library                          : libebml v0.7.7 + libmatroska v0.8.0

Video
ID                                       : 1
Format                                   : MPEG-4 Visual
Format profile                           : Advanced Simple@L5
Format settings                          : BVOP2
Format settings, BVOP                    : 2
Format settings, QPel                    : No
Format settings, GMC                     : No warppoints
Format settings, Matrix                  : Default (H.263)
Muxing mode                              : Packed bitstream
Codec ID                                 : V_MS/VFW/FOURCC / XVID
Codec ID/Hint                            : XviD
Duration                                 : 23 min 50 s
Bit rate                                 : 859 kb/s
Width                                    : 704 pixels
Height                                   : 400 pixels
Display aspect ratio                     : 16:9
Frame rate mode                          : Constant
Frame rate                               : 23.976 (24000/1001) FPS
Color space                              : YUV
Chroma subsampling                       : 4:2:0
Bit depth                                : 8 bits
Scan type                                : Progressive
Compression mode                         : Lossy
Bits/(Pixel*Frame)                       : 0.127
Stream size                              : 146 MiB (86%)
Title                                    : [Oyasumi] Welcome to the NHK! - 07 (XviD)
Writing library                          : XviD 1.2.0.dev45 (UTC 2006-07-10)
Default                                  : Yes
Forced                                   : No

Audio
ID                                       : 2
Format                                   : Vorbis
Format settings, Floor                   : 1
Codec ID                                 : A_VORBIS
Duration                                 : 23 min 50 s
Bit rate mode                            : Variable
Bit rate                                 : 124 kb/s
Channel(s)                               : 2 channels
Sampling rate                            : 48.0 kHz
Compression mode                         : Lossy
Stream size                              : 21.1 MiB (12%)
Title                                    : Stereo Vorbis
Writing library                          : aoTuV Beta 4.51 (UTC 2005-11-17)
Language                                 : Japanese
Default                                  : Yes
Forced                                   : No

Menu
00:00:00.000                             : en:Opening
00:01:40.016                             : en:Welcome to the NHK 07: Welcome to the Moratorium!
00:22:09.995                             : en:Ending
00:23:39.960                             : en:Preview

Other Files in this Torrent
[Oyasumi]_Welcome_to_the_NHK!_07_[3D1C3D8F].mkv
beta
Anime DDL+NZB mirror
Current Time: 21/01/2022 21:03



About/FAQs

Discord