[Oyasumi]_Welcome_to_the_NHK!_04_[3F28CA98].mkv


File Size171.4 MB (179,717,846 bytes)
DownloadAnonFiles | ClickNUpload | DownloadGG | DropAPK | MultiUp
  • BdUpload
  • DownAce
  • Fichier
  • FileCloud
  • Filerio
  • FilesCdn
  • IndiShare
  • Kbagi
  • Turbobit
  • UpToBox
  • Uppit
| ZippyShare
HashesCRC32: 3F28CA98, MD5: 95F87FC5B6E9790937C2DAE5B070D6DE, SHA1: E7652309E45B91406CB28B79595E582BFB94B6F3, SHA256: 11CE3CFC7A06309ACA2C1A344A165DE42B004ECFC57A97A12C26ABEACC495806, ED2K: 164836A423B73AA6CAFDC6A3ED37975D
Screenshots
screenshotscreenshotscreenshotscreenshotscreenshot
Additional Info
General
Unique ID                                : 190279974120308176652049698644841468983 (0x8F26970A1462C556AFEF7BB6CC481437)
Complete name                            : [Oyasumi]_Welcome_to_the_NHK!_04_[3F28CA98].mkv
Format                                   : Matroska
Format version                           : Version 1
File size                                : 171 MiB
Duration                                 : 24 min 10 s
Overall bit rate mode                    : Variable
Overall bit rate                         : 991 kb/s
Encoded date                             : UTC 2006-08-05 00:56:59
Writing application                      : mkvmerge v1.7.0 ('What Do You Take Me For') built on Apr 28 2006 17:20:19
Writing library                          : libebml v0.7.7 + libmatroska v0.8.0

Video
ID                                       : 1
Format                                   : MPEG-4 Visual
Format profile                           : Advanced Simple@L5
Format settings                          : BVOP2
Format settings, BVOP                    : 2
Format settings, QPel                    : No
Format settings, GMC                     : No warppoints
Format settings, Matrix                  : Default (H.263)
Muxing mode                              : Packed bitstream
Codec ID                                 : V_MS/VFW/FOURCC / XVID
Codec ID/Hint                            : XviD
Duration                                 : 24 min 10 s
Bit rate                                 : 859 kb/s
Width                                    : 704 pixels
Height                                   : 400 pixels
Display aspect ratio                     : 16:9
Frame rate mode                          : Constant
Frame rate                               : 23.976 (23976/1000) FPS
Color space                              : YUV
Chroma subsampling                       : 4:2:0
Bit depth                                : 8 bits
Scan type                                : Progressive
Compression mode                         : Lossy
Bits/(Pixel*Frame)                       : 0.127
Stream size                              : 149 MiB (87%)
Title                                    : [Oyasumi] Welcome to the NHK - 04 (XviD)
Writing library                          : XviD 1.1.0 (UTC 2005-11-22)
Default                                  : Yes
Forced                                   : No

Audio
ID                                       : 2
Format                                   : Vorbis
Format settings, Floor                   : 1
Codec ID                                 : A_VORBIS
Duration                                 : 24 min 10 s
Bit rate mode                            : Variable
Bit rate                                 : 112 kb/s
Channel(s)                               : 2 channels
Sampling rate                            : 48.0 kHz
Compression mode                         : Lossy
Stream size                              : 19.4 MiB (11%)
Title                                    : Stereo Vorbis
Writing library                          : libVorbis 1.0 (UTC 2002-07-17)
Language                                 : Japanese
Default                                  : Yes
Forced                                   : No

Menu
00:00:00.000                             : en:Opening
00:01:39.975                             : en:Welcome to the NHK 04: Welcome to the New World
00:22:09.995                             : en:Ending
00:23:39.918                             : en:Preview

Other Files in this Torrent
[Oyasumi]_Welcome_to_the_NHK!_04_[3F28CA98].mkv
beta
Anime DDL+NZB mirror
Current Time: 09/08/2022 05:48



About/FAQs

Discord