[Oyasumi]_Welcome_to_the_NHK!_16_[6EEF9C84].mkv


File Size171.7 MB (180,025,471 bytes)
DownloadAnonFiles | ClickNUpload | DownloadGG | DropAPK | MultiUp
  • BdUpload
  • DownAce
  • Fichier
  • FileCloud
  • Filerio
  • FilesCdn
  • IndiShare
  • Kbagi
  • Turbobit
  • UpToBox
  • Uppit
| ZippyShare
HashesCRC32: 6EEF9C84, MD5: 7994C081C1C7C850C07039FEBA80D56F, SHA1: 4517D330341A8F33BF24E509B0DD8EC631B119D2, SHA256: 9839F4CECB8ECA4FC6F8E14BFA5A352A291BD6320309D4A15CFCF8ADBF93362A, ED2K: 3B61987B189D579D76DFE3D1C3C38542
Screenshots
screenshotscreenshotscreenshotscreenshotscreenshot
Additional Info
General
Unique ID                                : 220603794640268992207888003630641020397 (0xA5F6BED2296C0747A35F187CF5797DED)
Complete name                            : [Oyasumi]_Welcome_to_the_NHK!_16_[6EEF9C84].mkv
Format                                   : Matroska
Format version                           : Version 1
File size                                : 172 MiB
Duration                                 : 23 min 49 s
Overall bit rate mode                    : Variable
Overall bit rate                         : 1 007 kb/s
Encoded date                             : UTC 2006-10-30 04:30:39
Writing application                      : mkvmerge v1.7.0 ('What Do You Take Me For') built on Apr 28 2006 17:20:19
Writing library                          : libebml v0.7.7 + libmatroska v0.8.0

Video
ID                                       : 1
Format                                   : MPEG-4 Visual
Format profile                           : Advanced Simple@L5
Format settings                          : BVOP2
Format settings, BVOP                    : 2
Format settings, QPel                    : No
Format settings, GMC                     : No warppoints
Format settings, Matrix                  : Default (H.263)
Muxing mode                              : Packed bitstream
Codec ID                                 : V_MS/VFW/FOURCC / XVID
Codec ID/Hint                            : XviD
Duration                                 : 23 min 49 s
Bit rate                                 : 859 kb/s
Width                                    : 704 pixels
Height                                   : 400 pixels
Display aspect ratio                     : 16:9
Frame rate mode                          : Constant
Frame rate                               : 23.976 (24000/1001) FPS
Color space                              : YUV
Chroma subsampling                       : 4:2:0
Bit depth                                : 8 bits
Scan type                                : Progressive
Compression mode                         : Lossy
Bits/(Pixel*Frame)                       : 0.127
Stream size                              : 146 MiB (85%)
Title                                    : [Oyasumi] Welcome to the NHK - 16 (XviD)
Writing library                          : XviD 1.2.0.dev45 (UTC 2006-07-10)
Default                                  : Yes
Forced                                   : No

Audio
ID                                       : 2
Format                                   : Vorbis
Format settings, Floor                   : 1
Codec ID                                 : A_VORBIS
Duration                                 : 23 min 49 s
Bit rate mode                            : Variable
Bit rate                                 : 128 kb/s
Channel(s)                               : 2 channels
Sampling rate                            : 48.0 kHz
Compression mode                         : Lossy
Stream size                              : 21.8 MiB (13%)
Title                                    : Stereo Vorbis
Writing library                          : aoTuV Beta 4.51 (UTC 2005-11-17)
Language                                 : Japanese
Default                                  : Yes
Forced                                   : No

Menu
00:00:00.000                             : en:Opening
00:01:39.974                             : en:Welcome to the NHK 16: Welcome to Game Over!
00:22:10.078                             : en:Ending
00:23:39.920                             : en:Preview

Other Files in this Torrent
[Oyasumi]_Welcome_to_the_NHK!_16_[6EEF9C84].mkv
beta
Anime DDL+NZB mirror
Current Time: 21/01/2022 21:15



About/FAQs

Discord