[Oyasumi]_Welcome_to_the_NHK!_20_[3F50DDBF].mkv


File Size170.3 MB (178,624,270 bytes)
DownloadAnonFiles | ClickNUpload | DownloadGG | DropAPK | MultiUp
  • BdUpload
  • DownAce
  • Fichier
  • FileCloud
  • Filerio
  • FilesCdn
  • IndiShare
  • Kbagi
  • Turbobit
  • UpToBox
  • Uppit
| ZippyShare
HashesCRC32: 3F50DDBF, MD5: 2F825499F1455FA3BEC3054C90BA4C3A, SHA1: 328DB7CB549568534378DA74A43AA6C7CBEA6DF0, SHA256: FDD8B2F4685A6DAD4798369254351017DFE05CA2FF88F0F0DA39E8FD2648313A, ED2K: 68B6A9AE27D5360214EA0790344A1C66
Screenshots
screenshotscreenshotscreenshotscreenshotscreenshot
Additional Info
General
Unique ID                                : 181669857707316311086062178768640621420 (0x88AC578670174836A5A655281D5D3B6C)
Complete name                            : [Oyasumi]_Welcome_to_the_NHK!_20_[3F50DDBF].mkv
Format                                   : Matroska
Format version                           : Version 1
File size                                : 170 MiB
Duration                                 : 23 min 49 s
Overall bit rate mode                    : Variable
Overall bit rate                         : 999 kb/s
Encoded date                             : UTC 2006-11-28 10:46:29
Writing application                      : mkvmerge v1.8.0 ('Wise Up') built on Nov 10 2006 19:41:15
Writing library                          : libebml v0.7.7 + libmatroska v0.8.0

Video
ID                                       : 1
Format                                   : MPEG-4 Visual
Format profile                           : Advanced Simple@L5
Format settings                          : BVOP2
Format settings, BVOP                    : 2
Format settings, QPel                    : No
Format settings, GMC                     : No warppoints
Format settings, Matrix                  : Default (H.263)
Muxing mode                              : Packed bitstream
Codec ID                                 : V_MS/VFW/FOURCC / XVID
Codec ID/Hint                            : XviD
Duration                                 : 23 min 49 s
Bit rate                                 : 852 kb/s
Width                                    : 704 pixels
Height                                   : 400 pixels
Display aspect ratio                     : 16:9
Frame rate mode                          : Constant
Frame rate                               : 23.976 (23976/1000) FPS
Color space                              : YUV
Chroma subsampling                       : 4:2:0
Bit depth                                : 8 bits
Scan type                                : Progressive
Compression mode                         : Lossy
Bits/(Pixel*Frame)                       : 0.126
Stream size                              : 145 MiB (85%)
Title                                    : [Oyasumi] Welcome to the NHK - 20 (Xvid)
Writing library                          : XviD 1.1.2 (UTC 2006-11-01)
Default                                  : Yes
Forced                                   : No

Audio
ID                                       : 2
Format                                   : Vorbis
Format settings, Floor                   : 1
Codec ID                                 : A_VORBIS
Duration                                 : 23 min 49 s
Bit rate mode                            : Variable
Bit rate                                 : 128 kb/s
Channel(s)                               : 2 channels
Sampling rate                            : 48.0 kHz
Compression mode                         : Lossy
Stream size                              : 21.8 MiB (13%)
Title                                    : Stereo Vorbis
Writing library                          : aoTuV Beta 4.51 (UTC 2005-11-17)
Default                                  : Yes
Forced                                   : No

Menu
00:00:00.000                             : en:Opening
00:01:39.933                             : en:Welcome to the NHK 20: Welcome to the Winter Days!
00:22:09.786                             : en:Ending
00:23:39.835                             : en:Preview

Other Files in this Torrent
[Oyasumi]_Welcome_to_the_NHK!_20_[3F50DDBF].mkv
beta
Anime DDL+NZB mirror
Current Time: 21/01/2022 21:06



About/FAQs

Discord