[Oyasumi]_Welcome_to_the_NHK!_09_[EE543FD5].mkv


File Size169.6 MB (177,870,752 bytes)
DownloadAnonFiles | ClickNUpload | DownloadGG | DropAPK | MultiUp
  • BdUpload
  • DownAce
  • Fichier
  • FileCloud
  • Filerio
  • FilesCdn
  • IndiShare
  • Kbagi
  • Turbobit
  • UpToBox
  • Uppit
| ZippyShare
HashesCRC32: EE543FD5, MD5: A418D15F190DA0B8C084E634E4714C93, SHA1: 202EFBB76D878597B116CF727F0E18EFEA386D3F, SHA256: 54CAE7A1E3C4A63D12EE8EA72A78BBC1EB271C987A6C201BFA67E187A1F15E9A, ED2K: 9416E595A1331CC662DEEA5EB3A56D51
Screenshots
screenshotscreenshotscreenshotscreenshotscreenshot
Additional Info
General
Unique ID                                : 223885934061640472155997387858658546084 (0xA86EDCC9C30A876EAC58A04F332D51A4)
Complete name                            : [Oyasumi]_Welcome_to_the_NHK!_09_[EE543FD5].mkv
Format                                   : Matroska
Format version                           : Version 1
File size                                : 170 MiB
Duration                                 : 23 min 50 s
Overall bit rate mode                    : Variable
Overall bit rate                         : 995 kb/s
Encoded date                             : UTC 2006-09-10 23:25:16
Writing application                      : mkvmerge v1.7.0 ('What Do You Take Me For') built on Apr 28 2006 17:20:19
Writing library                          : libebml v0.7.7 + libmatroska v0.8.0

Video
ID                                       : 1
Format                                   : MPEG-4 Visual
Format profile                           : Advanced Simple@L5
Format settings                          : BVOP2
Format settings, BVOP                    : 2
Format settings, QPel                    : No
Format settings, GMC                     : No warppoints
Format settings, Matrix                  : Default (H.263)
Muxing mode                              : Packed bitstream
Codec ID                                 : V_MS/VFW/FOURCC / XVID
Codec ID/Hint                            : XviD
Duration                                 : 23 min 50 s
Bit rate                                 : 855 kb/s
Width                                    : 704 pixels
Height                                   : 400 pixels
Display aspect ratio                     : 16:9
Frame rate mode                          : Constant
Frame rate                               : 23.976 (24000/1001) FPS
Color space                              : YUV
Chroma subsampling                       : 4:2:0
Bit depth                                : 8 bits
Scan type                                : Progressive
Compression mode                         : Lossy
Bits/(Pixel*Frame)                       : 0.127
Stream size                              : 146 MiB (86%)
Title                                    : [Oyasumi] Welcome to the NHK! - 09 (XviD)
Writing library                          : XviD 1.2.0.dev45 (UTC 2006-07-10)
Default                                  : Yes
Forced                                   : No

Audio
ID                                       : 2
Format                                   : Vorbis
Format settings, Floor                   : 1
Codec ID                                 : A_VORBIS
Duration                                 : 23 min 50 s
Bit rate mode                            : Variable
Bit rate                                 : 120 kb/s
Channel(s)                               : 2 channels
Sampling rate                            : 48.0 kHz
Compression mode                         : Lossy
Stream size                              : 20.5 MiB (12%)
Title                                    : Stereo Vorbis
Writing library                          : aoTuV Beta 4.51 (UTC 2005-11-17)
Language                                 : Japanese
Default                                  : Yes
Forced                                   : No

Menu
00:00:00.000                             : en:Opening
00:01:39.974                             : en:Welcome to the NHK 09: Welcome to the Summer Days!
00:22:10.078                             : en:Ending
00:23:40.001                             : en:Preview

Other Files in this Torrent
[Oyasumi]_Welcome_to_the_NHK!_09_[EE543FD5].mkv
beta
Anime DDL+NZB mirror
Current Time: 21/01/2022 21:26



About/FAQs

Discord