[Oyasumi]_Welcome_to_the_NHK!_08_[EFB0459E].mkv


File Size171.2 MB (179,567,389 bytes)
DownloadAnonFiles | ClickNUpload | DownloadGG | DropAPK | MultiUp
  • BdUpload
  • DownAce
  • Fichier
  • FileCloud
  • Filerio
  • FilesCdn
  • IndiShare
  • Kbagi
  • Turbobit
  • UpToBox
  • Uppit
| ZippyShare
HashesCRC32: EFB0459E, MD5: C6C9F2F1F80562BDAE94DBA3A7C2214D, SHA1: 15C606353434E0544819923F85C7D68200A2CE42, SHA256: 982E6EB21E72F52D74DAF920EE99E900ACB8BAD47B410425B3D21AB04508E0A9, ED2K: D33B842B4ECB982269C42575131F351D
Screenshots
screenshotscreenshotscreenshotscreenshotscreenshot
Additional Info
General
Unique ID                                : 246079961905339721922433276479973896120 (0xB92146D8161CA05C948D7FC730282FB8)
Complete name                            : [Oyasumi]_Welcome_to_the_NHK!_08_[EFB0459E].mkv
Format                                   : Matroska
Format version                           : Version 1
File size                                : 171 MiB
Duration                                 : 23 min 59 s
Overall bit rate mode                    : Variable
Overall bit rate                         : 998 kb/s
Encoded date                             : UTC 2006-09-03 11:17:06
Writing application                      : mkvmerge v1.7.0 ('What Do You Take Me For') built on Apr 28 2006 17:20:19
Writing library                          : libebml v0.7.7 + libmatroska v0.8.0

Video
ID                                       : 1
Format                                   : MPEG-4 Visual
Format profile                           : Advanced Simple@L5
Format settings                          : BVOP2
Format settings, BVOP                    : 2
Format settings, QPel                    : No
Format settings, GMC                     : No warppoints
Format settings, Matrix                  : Default (H.263)
Muxing mode                              : Packed bitstream
Codec ID                                 : V_MS/VFW/FOURCC / XVID
Codec ID/Hint                            : XviD
Duration                                 : 23 min 59 s
Bit rate                                 : 850 kb/s
Width                                    : 704 pixels
Height                                   : 400 pixels
Display aspect ratio                     : 16:9
Frame rate mode                          : Constant
Frame rate                               : 23.976 (23976/1000) FPS
Color space                              : YUV
Chroma subsampling                       : 4:2:0
Bit depth                                : 8 bits
Scan type                                : Progressive
Compression mode                         : Lossy
Bits/(Pixel*Frame)                       : 0.126
Stream size                              : 146 MiB (85%)
Title                                    : [Oyasumi] Welcome to the NHK - 08 (XviD)
Writing library                          : XviD 1.2.0.dev45 (UTC 2006-07-10)
Default                                  : Yes
Forced                                   : No

Audio
ID                                       : 2
Format                                   : Vorbis
Format settings, Floor                   : 1
Codec ID                                 : A_VORBIS
Duration                                 : 23 min 59 s
Bit rate mode                            : Variable
Bit rate                                 : 128 kb/s
Channel(s)                               : 2 channels
Sampling rate                            : 48.0 kHz
Compression mode                         : Lossy
Stream size                              : 22.0 MiB (13%)
Title                                    : Stereo Vorbis
Writing library                          : aoTuV Beta 4.51 (UTC 2005-11-17)
Language                                 : Japanese
Default                                  : Yes
Forced                                   : No

Menu
00:00:00.000                             : en:Opening
00:01:39.974                             : en:Welcome to the NHK 08: Welcome to Chinatown!
00:22:10.205                             : en:Ending
00:23:40.128                             : en:Preview

Other Files in this Torrent
[Oyasumi]_Welcome_to_the_NHK!_08_[EFB0459E].mkv
beta
Anime DDL+NZB mirror
Current Time: 02/12/2021 23:27



About/FAQs

Discord