[Oyasumi]_Welcome_to_the_NHK!_22_[A3E60426].mkv


File Size169.4 MB (177,589,739 bytes)
DownloadAnonFiles | ClickNUpload | DownloadGG | DropAPK | MultiUp
  • BdUpload
  • DownAce
  • Fichier
  • FileCloud
  • Filerio
  • FilesCdn
  • IndiShare
  • Kbagi
  • Turbobit
  • UpToBox
  • Uppit
| ZippyShare
HashesCRC32: A3E60426, MD5: A5EC8351FF718F3F1DAFE3FD7C97CB84, SHA1: DFBE3BB2C1BBDB1F40AE2756435825202F03343D, SHA256: 5D04968B97544D265C82E34BB1B2888C9574E7E31C09C9AEB0CF1AD817322FA5, ED2K: 84EBBA36663A8C982803060CA8336BC3
Screenshots
screenshotscreenshotscreenshotscreenshotscreenshot
Additional Info
General
Unique ID                                : 201012902084774533541317803352020541988 (0x9739AD3E65299288884A10EEA910E224)
Complete name                            : [Oyasumi]_Welcome_to_the_NHK!_22_[A3E60426].mkv
Format                                   : Matroska
Format version                           : Version 1
File size                                : 169 MiB
Duration                                 : 23 min 59 s
Overall bit rate mode                    : Variable
Overall bit rate                         : 987 kb/s
Encoded date                             : UTC 2006-12-09 18:16:31
Writing application                      : mkvmerge v1.8.0 ('Wise Up') built on Nov 10 2006 19:41:15
Writing library                          : libebml v0.7.7 + libmatroska v0.8.0

Video
ID                                       : 1
Format                                   : MPEG-4 Visual
Format profile                           : Advanced Simple@L5
Format settings                          : BVOP2
Format settings, BVOP                    : 2
Format settings, QPel                    : No
Format settings, GMC                     : No warppoints
Format settings, Matrix                  : Default (H.263)
Muxing mode                              : Packed bitstream
Codec ID                                 : V_MS/VFW/FOURCC / XVID
Codec ID/Hint                            : XviD
Duration                                 : 23 min 59 s
Bit rate                                 : 839 kb/s
Width                                    : 704 pixels
Height                                   : 400 pixels
Display aspect ratio                     : 16:9
Frame rate mode                          : Constant
Frame rate                               : 23.976 (23976/1000) FPS
Color space                              : YUV
Chroma subsampling                       : 4:2:0
Bit depth                                : 8 bits
Scan type                                : Progressive
Compression mode                         : Lossy
Bits/(Pixel*Frame)                       : 0.124
Stream size                              : 144 MiB (85%)
Title                                    : [Oyasumi] Welcome to the NHK - 22 (XviD)
Writing library                          : XviD 1.1.2 (UTC 2006-11-01)
Language                                 : English
Default                                  : Yes
Forced                                   : No

Audio
ID                                       : 2
Format                                   : Vorbis
Format settings, Floor                   : 1
Codec ID                                 : A_VORBIS
Duration                                 : 23 min 59 s
Bit rate mode                            : Variable
Bit rate                                 : 128 kb/s
Channel(s)                               : 2 channels
Sampling rate                            : 48.0 kHz
Compression mode                         : Lossy
Stream size                              : 22.0 MiB (13%)
Title                                    : Stereo Vorbis
Writing library                          : aoTuV Beta 4.51 (UTC 2005-11-17)
Language                                 : Japanese
Default                                  : Yes
Forced                                   : No

Menu
00:00:00.000                             : en:Opening
00:01:39.933                             : en:Welcome to the NHK 22: Welcome to God!
00:22:09.828                             : en:Ending
00:23:39.918                             : en:Preview

Other Files in this Torrent
[Oyasumi]_Welcome_to_the_NHK!_22_[A3E60426].mkv
beta
Anime DDL+NZB mirror
Current Time: 02/12/2021 23:46



About/FAQs

Discord