[Oyasumi]_Welcome_to_the_NHK!_10_[49B8A024].mkv


File Size170.8 MB (179,096,931 bytes)
DownloadAnonFiles | ClickNUpload | DownloadGG | DropAPK | MultiUp
  • BdUpload
  • DownAce
  • Fichier
  • FileCloud
  • Filerio
  • FilesCdn
  • IndiShare
  • Kbagi
  • Turbobit
  • UpToBox
  • Uppit
| ZippyShare
HashesCRC32: 49B8A024, MD5: 348968D5D6D3A85C03759317F7973993, SHA1: 56A9F64D0232414D8D59D7F7E5D6F85C042FD0EC, SHA256: B27B268683C6180AC6D316489FA659F54DBBEB7FA2B74BCE5BF8F9C5BF606E79, ED2K: 751F4900428CDD307DB0169D37E4948E
Screenshots
screenshotscreenshotscreenshotscreenshotscreenshot
Additional Info
General
Unique ID                                : 207110845247462900521416277065643162498 (0x9BD0190DCEDBAEC4ABB343191CD17B82)
Complete name                            : [Oyasumi]_Welcome_to_the_NHK!_10_[49B8A024].mkv
Format                                   : Matroska
Format version                           : Version 1
File size                                : 171 MiB
Duration                                 : 23 min 50 s
Overall bit rate mode                    : Variable
Overall bit rate                         : 1 002 kb/s
Encoded date                             : UTC 2006-09-15 23:14:36
Writing application                      : mkvmerge v1.7.0 ('What Do You Take Me For') built on Apr 28 2006 17:20:19
Writing library                          : libebml v0.7.7 + libmatroska v0.8.0

Video
ID                                       : 1
Format                                   : MPEG-4 Visual
Format profile                           : Advanced Simple@L5
Format settings                          : BVOP2
Format settings, BVOP                    : 2
Format settings, QPel                    : No
Format settings, GMC                     : No warppoints
Format settings, Matrix                  : Default (H.263)
Muxing mode                              : Packed bitstream
Codec ID                                 : V_MS/VFW/FOURCC / XVID
Codec ID/Hint                            : XviD
Duration                                 : 23 min 50 s
Bit rate                                 : 854 kb/s
Width                                    : 704 pixels
Height                                   : 400 pixels
Display aspect ratio                     : 16:9
Frame rate mode                          : Constant
Frame rate                               : 23.976 (24000/1001) FPS
Color space                              : YUV
Chroma subsampling                       : 4:2:0
Bit depth                                : 8 bits
Scan type                                : Progressive
Compression mode                         : Lossy
Bits/(Pixel*Frame)                       : 0.126
Stream size                              : 146 MiB (85%)
Title                                    : [Oyasumi] Welcome to the NHK - 10 (XviD)
Writing library                          : XviD 1.2.0.dev45 (UTC 2006-07-10)
Default                                  : Yes
Forced                                   : No

Audio
ID                                       : 2
Format                                   : Vorbis
Format settings, Floor                   : 1
Codec ID                                 : A_VORBIS
Duration                                 : 23 min 50 s
Bit rate mode                            : Variable
Bit rate                                 : 128 kb/s
Channel(s)                               : 2 channels
Sampling rate                            : 48.0 kHz
Compression mode                         : Lossy
Stream size                              : 21.8 MiB (13%)
Title                                    : Stereo Vorbis
Writing library                          : aoTuV Beta 4.51 (UTC 2005-11-17)
Language                                 : Japanese
Default                                  : Yes
Forced                                   : No

Menu
00:00:00.000                             : en:Opening
00:01:40.016                             : en:Welcome to the NHK 10: Welcome to the Dark Side!
00:22:10.037                             : en:Ending
00:23:40.001                             : en:Preview

Other Files in this Torrent
[Oyasumi]_Welcome_to_the_NHK!_10_[49B8A024].mkv
beta
Anime DDL+NZB mirror
Current Time: 09/08/2022 05:18



About/FAQs

Discord