[Oyasumi]_Welcome_to_the_NHK!_03v2_[A296ECE2].mkv


File Size171.4 MB (179,739,455 bytes)
DownloadAnonFiles | ClickNUpload | DownloadGG | DropAPK | MultiUp
  • BdUpload
  • DownAce
  • Fichier
  • FileCloud
  • Filerio
  • FilesCdn
  • IndiShare
  • Kbagi
  • Turbobit
  • UpToBox
  • Uppit
| ZippyShare
HashesCRC32: A296ECE2, MD5: CB520F58EFD4C265D561013B767C38D8, SHA1: 41E149FF412910DA80590910D6351BC1157CFC6A, SHA256: F02E2C74A275062B3926C99755B628D1CFCFC1216C60409C705F9FE432842A6E, ED2K: 9F570BC56ABD43570C0165BBBB4FDAC0
Screenshots
screenshotscreenshotscreenshotscreenshotscreenshot
Additional Info
General
Unique ID                                : 240056785691139102573956837858987981904 (0xB49941543C7354F5926D89D5D633BC50)
Complete name                            : [Oyasumi]_Welcome_to_the_NHK!_03v2_[A296ECE2].mkv
Format                                   : Matroska
Format version                           : Version 1
File size                                : 171 MiB
Duration                                 : 24 min 10 s
Overall bit rate mode                    : Variable
Overall bit rate                         : 991 kb/s
Encoded date                             : UTC 2006-07-28 17:12:45
Writing application                      : mkvmerge v1.7.0 ('What Do You Take Me For') built on Apr 28 2006 17:20:19
Writing library                          : libebml v0.7.7 + libmatroska v0.8.0

Video
ID                                       : 1
Format                                   : MPEG-4 Visual
Format profile                           : Advanced Simple@L5
Format settings                          : BVOP2
Format settings, BVOP                    : 2
Format settings, QPel                    : No
Format settings, GMC                     : No warppoints
Format settings, Matrix                  : Default (H.263)
Muxing mode                              : Packed bitstream
Codec ID                                 : V_MS/VFW/FOURCC / XVID
Codec ID/Hint                            : XviD
Duration                                 : 24 min 10 s
Bit rate                                 : 859 kb/s
Width                                    : 704 pixels
Height                                   : 400 pixels
Display aspect ratio                     : 16:9
Frame rate mode                          : Constant
Frame rate                               : 23.976 (23976/1000) FPS
Color space                              : YUV
Chroma subsampling                       : 4:2:0
Bit depth                                : 8 bits
Scan type                                : Progressive
Compression mode                         : Lossy
Bits/(Pixel*Frame)                       : 0.127
Stream size                              : 149 MiB (87%)
Title                                    : [Oyasumi] Welcome to the NHK - 03v2 (XviD)
Writing library                          : XviD 1.1.0 (UTC 2005-11-22)
Default                                  : Yes
Forced                                   : No

Audio
ID                                       : 2
Format                                   : Vorbis
Format settings, Floor                   : 1
Codec ID                                 : A_VORBIS
Duration                                 : 24 min 10 s
Bit rate mode                            : Variable
Bit rate                                 : 112 kb/s
Channel(s)                               : 2 channels
Sampling rate                            : 48.0 kHz
Compression mode                         : Lossy
Stream size                              : 19.4 MiB (11%)
Title                                    : Stereo Vorbis
Writing library                          : libVorbis 1.0 (UTC 2002-07-17)
Language                                 : Japanese
Default                                  : Yes
Forced                                   : No

Menu
00:00:00.000                             : en:Opening
00:01:39.974                             : en:Welcome to the NHK 03: Welcome to the Bishoujo
00:22:06.074                             : en:Ending
00:23:39.918                             : en:Preview

Other Files in this Torrent
[Oyasumi]_Welcome_to_the_NHK!_03v2_[A296ECE2].mkv
beta
Anime DDL+NZB mirror
Current Time: 02/12/2021 23:15



About/FAQs

Discord