03 Monogatari Final Season/05 Zoku Owarimonogatari/[DB]Zoku Owarimonogatari_-_01_(10bit_BD1080p_x265).mkv


File Size526.3 MB (551,844,527 bytes)
DownloadClickNUpload | DownloadGG | KrakenFiles
MultiUp: Part1
  • BdUpload
  • DownAce
  • Fichier
  • FileCloud
  • Filerio
  • FilesCdn
  • IndiShare
  • Kbagi
  • Turbobit
  • UpToBox
  • Uppit
, Part2
  • BdUpload
  • DownAce
  • Fichier
  • FileCloud
  • Filerio
  • FilesCdn
  • IndiShare
  • Kbagi
  • Turbobit
  • UpToBox
  • Uppit

ZippyShare: Part1, Part2
HashesCRC32: 17BC552B, MD5: D672CB2E16669647FDD7768D7B6C67DF, SHA1: A17E570E3466B4B1DC7B930A2EEFD8C32B59A635, SHA256: E693495D79738401C219280AF597C383DBC1450BC2115A7CC2362549D9431817, ED2K: A71DE8B75099EF9E38D928E81E454B7A
Screenshots
screenshotscreenshotscreenshotscreenshotscreenshot
SubtitlesAll Attachments | MTBB(Without Honorifics) [eng, ASS], MTBB(With Honorifics) [eng, ASS], Edo [eng, ASS]
Additional Info
General
Unique ID                                : 332993425201967926404486734705834096711 (0xFA84336D6646A1F5A5F449BDD8A87847)
Complete name                            : [DB]Zoku Owarimonogatari_-_01_(10bit_BD1080p_x265).mkv
Format                                   : Matroska
Format version                           : Version 4
File size                                : 526 MiB
Duration                                 : 24 min 38 s
Overall bit rate                         : 2 987 kb/s
Encoded date                             : UTC 2022-05-27 19:43:29
Writing application                      : mkvmerge v68.0.0 ('The Curtain') 64-bit
Writing library                          : libebml v1.4.2 + libmatroska v1.6.4
Attachments                              : Montara-Gothic_0.otf / Montara-Italic_0.otf / FOTPOPHAPPINESSSTRP-EXTRABOLD.OTF / GandhiSans-Bold.otf / GandhiSans-BoldItalic.otf / GARAMONDPREMRPRO-MED.OTF / HelveticaNeue LT 55 Roman.TTF / LHFSCRIPTANA-REGULAR.TTF / QUADRAATSANS-REGULAR.OTF / RESWYSOKR.OTF / ANTIQUEOLIVESTD-LIGHT.OTF / BDCARTOONSHOUT.TTF / BELLGOTHICSTD-MED.OTF / BLOCKPARTY.TTF / BLZEE.TTF / DFSHINTEN-W5-MADOKA-WIN-RKSJ-H.TTF / Luna.ttf / Montara-Gothic.ttf / Montara-Italic.ttf / ObelixPro-cyr.ttf / OtsutomeFont_Ver2.ttf / SP-Marker Font.otf / YuGothM.ttc / yumindb.ttf / Brushaff.otf / Inkfree.ttf / ltromatic.ttf

Video
ID                                       : 1
Format                                   : HEVC
Format/Info                              : High Efficiency Video Coding
Format profile                           : Main 10@L4@Main
Codec ID                                 : V_MPEGH/ISO/HEVC
Duration                                 : 24 min 38 s
Bit rate                                 : 2 476 kb/s
Width                                    : 1 920 pixels
Height                                   : 1 080 pixels
Display aspect ratio                     : 16:9
Frame rate mode                          : Constant
Frame rate                               : 23.976 (24000/1001) FPS
Color space                              : YUV
Chroma subsampling                       : 4:2:0
Bit depth                                : 10 bits
Bits/(Pixel*Frame)                       : 0.050
Stream size                              : 436 MiB (83%)
Writing library                          : x265 3.4+6-g73f96ff39:[Windows][GCC 11.0.0][64 bit] 10bit
Encoding settings                        : cpuid=1049583 / frame-threads=3 / numa-pools=8 / wpp / no-pmode / no-pme / no-psnr / no-ssim / log-level=2 / input-csp=1 / input-res=1920x1080 / interlace=0 / total-frames=35437 / level-idc=0 / high-tier=1 / uhd-bd=0 / ref=4 / no-allow-non-conformance / no-repeat-headers / annexb / no-aud / no-hrd / info / hash=0 / no-temporal-layers / open-gop / min-keyint=23 / keyint=250 / gop-lookahead=0 / bframes=8 / b-adapt=2 / b-pyramid / bframe-bias=0 / rc-lookahead=120 / lookahead-slices=4 / scenecut=40 / hist-scenecut=0 / radl=0 / no-splice / no-intra-refresh / ctu=64 / min-cu-size=8 / rect / no-amp / max-tu-size=32 / tu-inter-depth=1 / tu-intra-depth=1 / limit-tu=0 / rdoq-level=2 / dynamic-rd=0.00 / no-ssim-rd / signhide / no-tskip / nr-intra=0 / nr-inter=0 / no-constrained-intra / strong-intra-smoothing / max-merge=3 / limit-refs=3 / limit-modes / me=3 / subme=5 / merange=57 / temporal-mvp / no-frame-dup / no-hme / weightp / no-weightb / no-analyze-src-pics / deblock=0:0 / sao / no-sao-non-deblock / rd=4 / selective-sao=4 / no-early-skip / rskip / no-fast-intra / no-tskip-fast / no-cu-lossless / no-b-intra / no-splitrd-skip / rdpenalty=0 / psy-rd=1.00 / psy-rdoq=1.00 / no-rd-refine / no-lossless / cbqpoffs=0 / crqpoffs=0 / rc=crf / crf=19.5 / qcomp=0.70 / qpstep=4 / stats-write=0 / stats-read=0 / ipratio=1.40 / pbratio=1.30 / aq-mode=3 / aq-strength=1.00 / cutree / zone-count=0 / no-strict-cbr / qg-size=32 / no-rc-grain / qpmax=69 / qpmin=0 / no-const-vbv / sar=0 / overscan=0 / videoformat=5 / range=0 / colorprim=2 / transfer=2 / colormatrix=2 / chromaloc=0 / display-window=0 / cll=0,0 / min-luma=0 / max-luma=1023 / log2-max-poc-lsb=8 / vui-timing-info / vui-hrd-info / slices=1 / no-opt-qp-pps / no-opt-ref-list-length-pps / no-multi-pass-opt-rps / scenecut-bias=0.05 / hist-threshold=0.01 / no-opt-cu-delta-qp / no-aq-motion / no-hdr10 / no-hdr10-opt / no-dhdr10-opt / no-idr-recovery-sei / analysis-reuse-level=0 / analysis-save-reuse-level=0 / analysis-load-reuse-level=0 / scale-factor=0 / refine-intra=0 / refine-inter=0 / refine-mv=1 / refine-ctu-distortion=0 / no-limit-sao / ctu-info=0 / no-lowpass-dct / refine-analysis-type=0 / copy-pic=1 / max-ausize-factor=1.0 / no-dynamic-refine / no-single-sei / no-hevc-aq / no-svt / no-field / qp-adaptation-range=1.00 / no-scenecut-aware-qpconformance-window-offsets / right=0 / bottom=0 / decoder-max-rate=0
Default                                  : Yes
Forced                                   : No

Audio
ID                                       : 2
Format                                   : AAC LC
Format/Info                              : Advanced Audio Codec Low Complexity
Codec ID                                 : A_AAC-2
Duration                                 : 24 min 38 s
Bit rate                                 : 169 kb/s
Channel(s)                               : 2 channels
Channel layout                           : L R
Sampling rate                            : 48.0 kHz
Frame rate                               : 46.875 FPS (1024 SPF)
Compression mode                         : Lossy
Delay relative to video                  : 20 ms
Stream size                              : 29.7 MiB (6%)
Title                                    : Stereo
Language                                 : Japanese
Default                                  : Yes
Forced                                   : No

Text #1
ID                                       : 3
Format                                   : ASS
Codec ID                                 : S_TEXT/ASS
Codec ID/Info                            : Advanced Sub Station Alpha
Duration                                 : 24 min 20 s
Bit rate                                 : 78.6 kb/s
Count of elements                        : 1581
Compression mode                         : Lossless
Stream size                              : 13.7 MiB (3%)
Title                                    : MTBB(Without Honorifics)
Language                                 : English
Default                                  : Yes
Forced                                   : No

Text #2
ID                                       : 4
Format                                   : ASS
Codec ID                                 : S_TEXT/ASS
Codec ID/Info                            : Advanced Sub Station Alpha
Duration                                 : 24 min 20 s
Bit rate                                 : 78.6 kb/s
Count of elements                        : 1581
Compression mode                         : Lossless
Stream size                              : 13.7 MiB (3%)
Title                                    : MTBB(With Honorifics)
Language                                 : English
Default                                  : No
Forced                                   : No

Text #3
ID                                       : 5
Format                                   : ASS
Codec ID                                 : S_TEXT/ASS
Codec ID/Info                            : Advanced Sub Station Alpha
Duration                                 : 24 min 20 s
Bit rate                                 : 173 b/s
Count of elements                        : 426
Compression mode                         : Lossless
Stream size                              : 30.9 KiB (0%)
Title                                    : Edo
Language                                 : English
Default                                  : No
Forced                                   : No

Menu
00:00:01.033                             : en:Intro
00:01:27.980                             : en:OP
00:02:28.040                             : en:Episode
00:23:07.030                             : en:ED

Other Files in this Torrent
03 Monogatari Final Season/05 Zoku Owarimonogatari/[DB]Zoku Owarimonogatari_-_01_(10bit_BD1080p_x265).mkv
beta
Anime DDL+NZB mirror
Current Time: 29/05/2024 14:22



About/FAQs

Discord