01 Monogatari First Season/02 Nisemonogatari/[DB]Nisemonogatari_-_05_(10bit_BD1080p_x265).mkv


File Size499.3 MB (523,566,549 bytes)
DownloadClickNUpload | DownloadGG | KrakenFiles | MultiUp
  • BdUpload
  • DownAce
  • Fichier
  • FileCloud
  • Filerio
  • FilesCdn
  • IndiShare
  • Kbagi
  • Turbobit
  • UpToBox
  • Uppit
| ZippyShare
HashesCRC32: 56E04F39, MD5: 26AF3FB0F0F07493719B344AED5D1B2D, SHA1: 144E88D4008A6F31BD831975AD0BDC7BC18A6448, SHA256: 41CD903B97092A27E681A2E9C7661B4F5718A5907A860E39EA20F6983102CA8F, ED2K: 23071C4301BFD68513DA1D6F821BFAD0
Screenshots
screenshotscreenshotscreenshotscreenshotscreenshot
SubtitlesAll Attachments | Official Subs [eng, PGS], Commie [eng, ASS], Coalgirls [eng, ASS], Tap24 [eng, ASS], MTBB(Without Honorifics) [eng, ASS], MTBB(With Honorifics) [eng, ASS]
Additional Info
General
Unique ID                                : 255574062398659101258020902950034499077 (0xC045C6236FE48D872B0409BC7A786605)
Complete name                            : [DB]Nisemonogatari_-_05_(10bit_BD1080p_x265).mkv
Format                                   : Matroska
Format version                           : Version 4
File size                                : 499 MiB
Duration                                 : 25 min 15 s
Overall bit rate                         : 2 764 kb/s
Encoded date                             : UTC 2022-09-18 14:06:31
Writing application                      : mkvmerge v68.0.0 ('The Curtain') 64-bit
Writing library                          : libebml v1.4.2 + libmatroska v1.6.4
Cover                                    : Yes
Attachments                              : PAPYRUS_1.TTF / Papyrus-LET-Plain.ttf / CENTURYOLDSTYLE-LIGHT.OTF / Complete_in_Him.ttf / DESIB__.TTF / cover.jpg / Coprgtb.TTF / corbelb.ttf / CorinthianMedium.ttf / Disney_Simple.ttf / edosz.ttf / FNT_BS.TTF / georgia.ttf / georgiab.ttf / hongkong.ttf / Hultog.ttf / Impress BT.ttf / JFRocSol.TTF / jsa_lovechinese.ttf / KGFallForYou.ttf / lastninja.ttf / lightmorning.ttf / mangat.ttf / MLSGU.TTF / oakwood.ttf / OLD_RUBBER_STAMP.TTF / pixelmix.ttf / AmazGoDaBold.ttf / andyb.ttf / ANNA.ttf / Arena Outline.ttf / arial.ttf / arialbd.ttf / ariali.ttf / ARLRDBD.TTF / AUBREY1_.TTF / CatShop.ttf / CENTURY.TTF / CENTURYO.TTF / CenturyOldStyle-Light Bold.ttf / Clannad_Round_Regular.ttf / CALG421N.TTF / Covered By Your Grace.ttf / DESIB_.TTF / GASTADA.TTF / IwaMinPro-Lt-Madoka.ttf / IwaOMinPro-Bd-Fate.ttf / Merchant Copy.ttf / Montara-Gothic.otf / Montara-Italic.otf / pala.ttf / palab.ttf / PAPYRUS_0.TTF / wminsects1.TTF / AmazGoDa / AmazGoDaBold / Andy Bold / Anna / Arena Outline / Arial Rounded MT Bold / Arialic Hollow / Aubrey / Brady Bunch / CatShop / Century / Copperplate Gothic Bold / DanteMTStd-Bold / Edo SZ / FnT_BasicShapes1 / Georgia / GillSansStd / GillSansStd-Bold / HongKong / Hultog Italic / IcedEarth / IwaOMinPro-Fate-Bd / jsa lovechinese / Jungle LIFE / KG Fall For You / Lightmorning / Linkin Park / MyriadPro-Bold / Oak Wood / pixelmix Regular / Seven Monkey Fury BB

Video
ID                                       : 1
Format                                   : HEVC
Format/Info                              : High Efficiency Video Coding
Format profile                           : Main 10@L4@Main
Codec ID                                 : V_MPEGH/ISO/HEVC
Duration                                 : 25 min 15 s
Bit rate                                 : 2 511 kb/s
Width                                    : 1 920 pixels
Height                                   : 1 080 pixels
Display aspect ratio                     : 16:9
Frame rate mode                          : Constant
Frame rate                               : 23.976 (24000/1001) FPS
Color space                              : YUV
Chroma subsampling                       : 4:2:0
Bit depth                                : 10 bits
Bits/(Pixel*Frame)                       : 0.051
Stream size                              : 454 MiB (91%)
Writing library                          : x265 3.4+6-g73f96ff39:[Windows][GCC 11.0.0][64 bit] 10bit
Encoding settings                        : cpuid=1049583 / frame-threads=3 / numa-pools=8 / wpp / no-pmode / no-pme / no-psnr / no-ssim / log-level=2 / input-csp=1 / input-res=1920x1080 / interlace=0 / total-frames=36328 / level-idc=0 / high-tier=1 / uhd-bd=0 / ref=4 / no-allow-non-conformance / no-repeat-headers / annexb / no-aud / no-hrd / info / hash=0 / no-temporal-layers / open-gop / min-keyint=23 / keyint=250 / gop-lookahead=0 / bframes=8 / b-adapt=2 / b-pyramid / bframe-bias=0 / rc-lookahead=120 / lookahead-slices=4 / scenecut=40 / hist-scenecut=0 / radl=0 / no-splice / no-intra-refresh / ctu=64 / min-cu-size=8 / rect / no-amp / max-tu-size=32 / tu-inter-depth=1 / tu-intra-depth=1 / limit-tu=0 / rdoq-level=2 / dynamic-rd=0.00 / no-ssim-rd / signhide / no-tskip / nr-intra=0 / nr-inter=0 / no-constrained-intra / strong-intra-smoothing / max-merge=3 / limit-refs=3 / limit-modes / me=3 / subme=5 / merange=57 / temporal-mvp / no-frame-dup / no-hme / weightp / no-weightb / no-analyze-src-pics / deblock=0:0 / sao / no-sao-non-deblock / rd=4 / selective-sao=4 / no-early-skip / rskip / no-fast-intra / no-tskip-fast / no-cu-lossless / no-b-intra / no-splitrd-skip / rdpenalty=0 / psy-rd=1.00 / psy-rdoq=1.00 / no-rd-refine / no-lossless / cbqpoffs=0 / crqpoffs=0 / rc=crf / crf=19.5 / qcomp=0.70 / qpstep=4 / stats-write=0 / stats-read=0 / ipratio=1.40 / pbratio=1.30 / aq-mode=3 / aq-strength=1.00 / cutree / zone-count=0 / no-strict-cbr / qg-size=32 / no-rc-grain / qpmax=69 / qpmin=0 / no-const-vbv / sar=0 / overscan=0 / videoformat=5 / range=0 / colorprim=2 / transfer=2 / colormatrix=2 / chromaloc=0 / display-window=0 / cll=0,0 / min-luma=0 / max-luma=1023 / log2-max-poc-lsb=8 / vui-timing-info / vui-hrd-info / slices=1 / no-opt-qp-pps / no-opt-ref-list-length-pps / no-multi-pass-opt-rps / scenecut-bias=0.05 / hist-threshold=0.01 / no-opt-cu-delta-qp / no-aq-motion / no-hdr10 / no-hdr10-opt / no-dhdr10-opt / no-idr-recovery-sei / analysis-reuse-level=0 / analysis-save-reuse-level=0 / analysis-load-reuse-level=0 / scale-factor=0 / refine-intra=0 / refine-inter=0 / refine-mv=1 / refine-ctu-distortion=0 / no-limit-sao / ctu-info=0 / no-lowpass-dct / refine-analysis-type=0 / copy-pic=1 / max-ausize-factor=1.0 / no-dynamic-refine / no-single-sei / no-hevc-aq / no-svt / no-field / qp-adaptation-range=1.00 / no-scenecut-aware-qpconformance-window-offsets / right=0 / bottom=0 / decoder-max-rate=0
Default                                  : Yes
Forced                                   : No

Audio
ID                                       : 2
Format                                   : AAC LC
Format/Info                              : Advanced Audio Codec Low Complexity
Codec ID                                 : A_AAC-2
Duration                                 : 25 min 15 s
Bit rate                                 : 163 kb/s
Channel(s)                               : 2 channels
Channel layout                           : L R
Sampling rate                            : 48.0 kHz
Frame rate                               : 46.875 FPS (1024 SPF)
Compression mode                         : Lossy
Delay relative to video                  : 20 ms
Stream size                              : 29.5 MiB (6%)
Title                                    : Stereo
Language                                 : Japanese
Default                                  : Yes
Forced                                   : No

Text #1
ID                                       : 3
Format                                   : PGS
Muxing mode                              : zlib
Codec ID                                 : S_HDMV/PGS
Codec ID/Info                            : Picture based subtitle format used on BDs/HD-DVDs
Duration                                 : 25 min 2 s
Bit rate                                 : 46.8 kb/s
Count of elements                        : 1009
Stream size                              : 8.37 MiB (2%)
Title                                    : Official Subs
Language                                 : English
Default                                  : No
Forced                                   : No

Text #2
ID                                       : 4
Format                                   : ASS
Codec ID                                 : S_TEXT/ASS
Codec ID/Info                            : Advanced Sub Station Alpha
Duration                                 : 24 min 1 s
Bit rate                                 : 350 b/s
Count of elements                        : 766
Compression mode                         : Lossless
Stream size                              : 61.7 KiB (0%)
Title                                    : Commie
Language                                 : English
Default                                  : No
Forced                                   : No

Text #3
ID                                       : 5
Format                                   : ASS
Codec ID                                 : S_TEXT/ASS
Codec ID/Info                            : Advanced Sub Station Alpha
Duration                                 : 24 min 58 s
Bit rate                                 : 311 b/s
Count of elements                        : 769
Compression mode                         : Lossless
Stream size                              : 57.0 KiB (0%)
Title                                    : Coalgirls
Language                                 : English
Default                                  : No
Forced                                   : No

Text #4
ID                                       : 6
Format                                   : ASS
Codec ID                                 : S_TEXT/ASS
Codec ID/Info                            : Advanced Sub Station Alpha
Duration                                 : 24 min 58 s
Bit rate                                 : 381 b/s
Count of elements                        : 783
Compression mode                         : Lossless
Stream size                              : 69.9 KiB (0%)
Title                                    : Tap24
Language                                 : English
Default                                  : No
Forced                                   : No

Text #5
ID                                       : 7
Format                                   : ASS
Codec ID                                 : S_TEXT/ASS
Codec ID/Info                            : Advanced Sub Station Alpha
Duration                                 : 24 min 58 s
Bit rate                                 : 1 036 b/s
Count of elements                        : 1300
Compression mode                         : Lossless
Stream size                              : 190 KiB (0%)
Title                                    : MTBB(Without Honorifics)
Language                                 : English
Default                                  : Yes
Forced                                   : No

Text #6
ID                                       : 8
Format                                   : ASS
Codec ID                                 : S_TEXT/ASS
Codec ID/Info                            : Advanced Sub Station Alpha
Duration                                 : 24 min 58 s
Bit rate                                 : 1 036 b/s
Count of elements                        : 1300
Compression mode                         : Lossless
Stream size                              : 190 KiB (0%)
Title                                    : MTBB(With Honorifics)
Language                                 : English
Default                                  : No
Forced                                   : No

Menu
00:00:00.033                             : en:Intro
00:03:49.000                             : en:OP
00:05:18.970                             : en:Episode
00:22:40.050                             : en:ED
00:24:10.010                             : en:Preview

Other Files in this Torrent
01 Monogatari First Season/02 Nisemonogatari/[DB]Nisemonogatari_-_05_(10bit_BD1080p_x265).mkv
beta
Anime DDL+NZB mirror
Current Time: 29/05/2024 15:46



About/FAQs

Discord