01 Monogatari First Season/01 Bakemonogatari/[DB]Bakemonogatari_-_03_(10bit_BD1080p_x265).mkv


File Size364.8 MB (382,537,295 bytes)
DownloadAnonFiles | ClickNUpload | DownloadGG | KrakenFiles | MultiUp
  • BdUpload
  • DownAce
  • Fichier
  • FileCloud
  • Filerio
  • FilesCdn
  • IndiShare
  • Kbagi
  • Turbobit
  • UpToBox
  • Uppit
| ZippyShare
HashesCRC32: 1F50F9E4, MD5: DFDA3E81AA0EA16E6FDCC5F5EB3827FC, SHA1: 98EE74CDE5931ABC2A5E8EA961A3375E5F4A5AF1, SHA256: 226929CC39C6778FB47D1031A02F70D9FBF7463850FA091F46640ABDF834ECF8, ED2K: 53FAB49DA29797FF4DD74A6F0EC6E44A
Screenshots
screenshotscreenshotscreenshotscreenshotscreenshot
SubtitlesAll Attachments | Official Subs [eng, PGS], MTBB(Without Honorifics) [eng, ASS], MTBB(With Honorifics) [eng, ASS], MTBB(Commentary) [eng, ASS], [ANE] [eng, ASS], [Coalgirls] [eng, ASS]
Additional Info
General
Unique ID                                : 122946246197053451069952563515119463799 (0x5C7E95F118B605DE2B42853A07856D77)
Complete name                            : [DB]Bakemonogatari_-_03_(10bit_BD1080p_x265).mkv
Format                                   : Matroska
Format version                           : Version 4
File size                                : 365 MiB
Duration                                 : 25 min 59 s
Overall bit rate                         : 1 963 kb/s
Encoded date                             : UTC 2022-09-24 20:58:49
Writing application                      : mkvmerge v68.0.0 ('The Curtain') 64-bit
Writing library                          : libebml v1.4.2 + libmatroska v1.6.4
Cover                                    : Yes
Attachments                              : GENTIUMBASIC.TTF / HIRAV8-W8.TTF / IWAOMINPRO-FATE-BD.TTF / MONTARA-GOTHIC.OTF / MONTARA-ITALIC.OTF / QUADRAAT-REGULAR.OTF / RESWYSOKR.OTF / VOGELBOLD.TTF / ARIAL-BOLDMT-STR.TTF / GandhiSans-Bold_0.otf / GandhiSans-BoldItalic_0.otf / cover.jpg / ElektraMedium.otf / fansubBlock.ttf / georgia.ttf / JacobyICG-Light.otf / LT_70142.ttf / MarkingPenPL.TTF / moonp.ttf / Profile-Medium.otf / Profile-Regular.otf / take_out_the_garbage.ttf / AbyssTSFont.ttf / BAARS___.TTF / BAKESBR.TTF / BurstMyBubble.ttf / cac-moose.ttf / CHANC__.TTF / Corinthian Medium.ttf / Eager_Naturalist.ttf / BAARS_.TTF / Brianne_s_hand.ttf / CENTURY.TTF / COMMUNIS.TTF / font.otf / MarkingPenPL.TTF / MyriadPro-Bold.otf

Video
ID                                       : 1
Format                                   : HEVC
Format/Info                              : High Efficiency Video Coding
Format profile                           : Main 10@L4@Main
Codec ID                                 : V_MPEGH/ISO/HEVC
Duration                                 : 25 min 59 s
Bit rate                                 : 1 522 kb/s
Width                                    : 1 920 pixels
Height                                   : 1 080 pixels
Display aspect ratio                     : 16:9
Frame rate mode                          : Constant
Frame rate                               : 23.976 (24000/1001) FPS
Color space                              : YUV
Chroma subsampling                       : 4:2:0
Bit depth                                : 10 bits
Bits/(Pixel*Frame)                       : 0.031
Stream size                              : 283 MiB (78%)
Writing library                          : x265 3.4+6-g73f96ff39:[Windows][GCC 11.0.0][64 bit] 10bit
Encoding settings                        : cpuid=1049583 / frame-threads=3 / numa-pools=8 / wpp / no-pmode / no-pme / no-psnr / no-ssim / log-level=2 / input-csp=1 / input-res=1920x1080 / interlace=0 / total-frames=37380 / level-idc=0 / high-tier=1 / uhd-bd=0 / ref=4 / no-allow-non-conformance / no-repeat-headers / annexb / no-aud / no-hrd / info / hash=0 / no-temporal-layers / open-gop / min-keyint=23 / keyint=250 / gop-lookahead=0 / bframes=8 / b-adapt=2 / b-pyramid / bframe-bias=0 / rc-lookahead=120 / lookahead-slices=4 / scenecut=40 / hist-scenecut=0 / radl=0 / no-splice / no-intra-refresh / ctu=64 / min-cu-size=8 / rect / no-amp / max-tu-size=32 / tu-inter-depth=1 / tu-intra-depth=1 / limit-tu=0 / rdoq-level=2 / dynamic-rd=0.00 / no-ssim-rd / signhide / no-tskip / nr-intra=0 / nr-inter=0 / no-constrained-intra / strong-intra-smoothing / max-merge=3 / limit-refs=3 / limit-modes / me=3 / subme=5 / merange=57 / temporal-mvp / no-frame-dup / no-hme / weightp / no-weightb / no-analyze-src-pics / deblock=0:0 / sao / no-sao-non-deblock / rd=4 / selective-sao=4 / no-early-skip / rskip / no-fast-intra / no-tskip-fast / no-cu-lossless / no-b-intra / no-splitrd-skip / rdpenalty=0 / psy-rd=1.00 / psy-rdoq=1.00 / no-rd-refine / no-lossless / cbqpoffs=0 / crqpoffs=0 / rc=crf / crf=19.5 / qcomp=0.70 / qpstep=4 / stats-write=0 / stats-read=0 / ipratio=1.40 / pbratio=1.30 / aq-mode=3 / aq-strength=1.00 / cutree / zone-count=0 / no-strict-cbr / qg-size=32 / no-rc-grain / qpmax=69 / qpmin=0 / no-const-vbv / sar=0 / overscan=0 / videoformat=5 / range=0 / colorprim=2 / transfer=2 / colormatrix=2 / chromaloc=0 / display-window=0 / cll=0,0 / min-luma=0 / max-luma=1023 / log2-max-poc-lsb=8 / vui-timing-info / vui-hrd-info / slices=1 / no-opt-qp-pps / no-opt-ref-list-length-pps / no-multi-pass-opt-rps / scenecut-bias=0.05 / hist-threshold=0.01 / no-opt-cu-delta-qp / no-aq-motion / no-hdr10 / no-hdr10-opt / no-dhdr10-opt / no-idr-recovery-sei / analysis-reuse-level=0 / analysis-save-reuse-level=0 / analysis-load-reuse-level=0 / scale-factor=0 / refine-intra=0 / refine-inter=0 / refine-mv=1 / refine-ctu-distortion=0 / no-limit-sao / ctu-info=0 / no-lowpass-dct / refine-analysis-type=0 / copy-pic=1 / max-ausize-factor=1.0 / no-dynamic-refine / no-single-sei / no-hevc-aq / no-svt / no-field / qp-adaptation-range=1.00 / no-scenecut-aware-qpconformance-window-offsets / right=0 / bottom=0 / decoder-max-rate=0
Default                                  : Yes
Forced                                   : No

Audio #1
ID                                       : 2
Format                                   : AAC LC
Format/Info                              : Advanced Audio Codec Low Complexity
Codec ID                                 : A_AAC-2
Duration                                 : 25 min 59 s
Bit rate                                 : 171 kb/s
Channel(s)                               : 2 channels
Channel layout                           : L R
Sampling rate                            : 48.0 kHz
Frame rate                               : 46.875 FPS (1024 SPF)
Compression mode                         : Lossy
Delay relative to video                  : 20 ms
Stream size                              : 31.8 MiB (9%)
Title                                    : Stereo
Language                                 : Japanese
Default                                  : Yes
Forced                                   : No

Audio #2
ID                                       : 3
Format                                   : AAC LC
Format/Info                              : Advanced Audio Codec Low Complexity
Codec ID                                 : A_AAC-2
Duration                                 : 25 min 59 s
Bit rate                                 : 137 kb/s
Channel(s)                               : 2 channels
Channel layout                           : L R
Sampling rate                            : 48.0 kHz
Frame rate                               : 46.875 FPS (1024 SPF)
Compression mode                         : Lossy
Delay relative to video                  : 20 ms
Stream size                              : 25.4 MiB (7%)
Title                                    : Commentary
Language                                 : Japanese
Default                                  : No
Forced                                   : No

Text #1
ID                                       : 4
Format                                   : PGS
Muxing mode                              : zlib
Codec ID                                 : S_HDMV/PGS
Codec ID/Info                            : Picture based subtitle format used on BDs/HD-DVDs
Duration                                 : 25 min 55 s
Bit rate                                 : 148 kb/s
Count of elements                        : 1525
Stream size                              : 27.4 MiB (8%)
Title                                    : Official Subs
Language                                 : English
Default                                  : No
Forced                                   : No

Text #2
ID                                       : 5
Format                                   : ASS
Codec ID                                 : S_TEXT/ASS
Codec ID/Info                            : Advanced Sub Station Alpha
Duration                                 : 25 min 55 s
Bit rate                                 : 2 437 b/s
Count of elements                        : 3437
Compression mode                         : Lossless
Stream size                              : 463 KiB (0%)
Title                                    : MTBB(Without Honorifics)
Language                                 : English
Default                                  : Yes
Forced                                   : No

Text #3
ID                                       : 6
Format                                   : ASS
Codec ID                                 : S_TEXT/ASS
Codec ID/Info                            : Advanced Sub Station Alpha
Duration                                 : 25 min 55 s
Bit rate                                 : 2 437 b/s
Count of elements                        : 3437
Compression mode                         : Lossless
Stream size                              : 463 KiB (0%)
Title                                    : MTBB(With Honorifics)
Language                                 : English
Default                                  : No
Forced                                   : No

Text #4
ID                                       : 7
Format                                   : ASS
Codec ID                                 : S_TEXT/ASS
Codec ID/Info                            : Advanced Sub Station Alpha
Duration                                 : 25 min 55 s
Bit rate                                 : 199 b/s
Count of elements                        : 553
Compression mode                         : Lossless
Stream size                              : 37.8 KiB (0%)
Title                                    : MTBB(Commentary)
Language                                 : English
Default                                  : No
Forced                                   : No

Text #5
ID                                       : 8
Format                                   : ASS
Codec ID                                 : S_TEXT/ASS
Codec ID/Info                            : Advanced Sub Station Alpha
Duration                                 : 25 min 56 s
Bit rate                                 : 528 b/s
Count of elements                        : 1468
Compression mode                         : Lossless
Stream size                              : 100 KiB (0%)
Title                                    : [ANE]
Language                                 : English
Default                                  : No
Forced                                   : No

Text #6
ID                                       : 9
Format                                   : ASS
Codec ID                                 : S_TEXT/ASS
Codec ID/Info                            : Advanced Sub Station Alpha
Duration                                 : 25 min 55 s
Bit rate                                 : 1 099 b/s
Count of elements                        : 2658
Compression mode                         : Lossless
Stream size                              : 209 KiB (0%)
Title                                    : [Coalgirls]
Language                                 : English
Default                                  : No
Forced                                   : No

Menu
00:00:00.033                             : en:Intro
00:01:18.980                             : en:OP
00:02:48.980                             : en:Episode
00:23:54.950                             : en:ED
00:25:24.910                             : en:Preview

Other Files in this Torrent
01 Monogatari First Season/01 Bakemonogatari/[DB]Bakemonogatari_-_03_(10bit_BD1080p_x265).mkv
beta
Anime DDL+NZB mirror
Current Time: 29/05/2024 15:26



About/FAQs

Discord