03 Monogatari Final Season/05 Zoku Owarimonogatari/[DB]Zoku Owarimonogatari_-_06_(10bit_BD1080p_x265).mkv


File Size621.3 MB (651,517,504 bytes)
DownloadClickNUpload | DownloadGG | KrakenFiles
MultiUp: Part1
  • BdUpload
  • DownAce
  • Fichier
  • FileCloud
  • Filerio
  • FilesCdn
  • IndiShare
  • Kbagi
  • Turbobit
  • UpToBox
  • Uppit
, Part2
  • BdUpload
  • DownAce
  • Fichier
  • FileCloud
  • Filerio
  • FilesCdn
  • IndiShare
  • Kbagi
  • Turbobit
  • UpToBox
  • Uppit

ZippyShare: Part1, Part2
HashesCRC32: 95A8B25D, MD5: 6E501A000F4BCA6D805C1DCD0EF555C4, SHA1: CCD196D7736C00A51BBECC0BBEC49C449A5E6553, SHA256: 521C420918C6915117721930727E59F1FE7BA00DFE7B70FFD9145DD323611368, ED2K: C6D1997D8FFBA720819C965F77AB944D
Screenshots
screenshotscreenshotscreenshotscreenshotscreenshot
SubtitlesAll Attachments | MTBB(Without Honorifics) [eng, ASS], MTBB(With Honorifics) [eng, ASS], Edo [eng, ASS]
Additional Info
General
Unique ID                                : 179314691265124981452656987865207342269 (0x86E6C0DABBBB1F89B75FA752131D04BD)
Complete name                            : [DB]Zoku Owarimonogatari_-_06_(10bit_BD1080p_x265).mkv
Format                                   : Matroska
Format version                           : Version 4
File size                                : 621 MiB
Duration                                 : 32 min 21 s
Overall bit rate                         : 2 685 kb/s
Encoded date                             : UTC 2022-05-27 20:02:30
Writing application                      : mkvmerge v68.0.0 ('The Curtain') 64-bit
Writing library                          : libebml v1.4.2 + libmatroska v1.6.4
Attachments                              : Montara-Gothic_0.otf / Montara-Italic_0.otf / GandhiSans-BoldItalic.otf / GENTIUMBASIC.TTF / GENTIUMBOOKBASIC.TTF / HAPOLEPENCIL.TTF / HIRAV8-W8.TTF / LHFSCRIPTANA-REGULAR.TTF / MAILARTRUBBERSTAMP-REGULAR.OTF / NOMORELIES.TTF / PENCILPETEFONT.OTF / QUADRAAT-BOLD.OTF / QUADRAAT-REGULAR.OTF / QUADRAATSANS-REGULAR.OTF / RESWYSOKR.OTF / SECONDBREAKFAST.TTF / SHRIMPFRIEDRICENO1.TTF / THEGUNSSMOKEST.TTF / AFONTWITHSERIFS.TTF / ANTIQUEOLIVESTD-LIGHT.OTF / BELLGOTHICSTD-MED.OTF / BOLTON.TTF / CATENARYSTAMP.TTF / COMICKA.TTF / CRAYONAL.OTF / ERASERDUST.TTF / GandhiSans-Bold.otf / OtsutomeFont_Ver2.ttf / YuGothM.ttc / yumindb.ttf / Brushaff.otf / Montara-Gothic.ttf / Montara-Italic.ttf

Video
ID                                       : 1
Format                                   : HEVC
Format/Info                              : High Efficiency Video Coding
Format profile                           : Main 10@L4@Main
Codec ID                                 : V_MPEGH/ISO/HEVC
Duration                                 : 32 min 21 s
Bit rate                                 : 2 357 kb/s
Width                                    : 1 920 pixels
Height                                   : 1 080 pixels
Display aspect ratio                     : 16:9
Frame rate mode                          : Constant
Frame rate                               : 23.976 (24000/1001) FPS
Color space                              : YUV
Chroma subsampling                       : 4:2:0
Bit depth                                : 10 bits
Bits/(Pixel*Frame)                       : 0.047
Stream size                              : 545 MiB (88%)
Writing library                          : x265 3.4+6-g73f96ff39:[Windows][GCC 11.0.0][64 bit] 10bit
Encoding settings                        : cpuid=1049583 / frame-threads=3 / numa-pools=8 / wpp / no-pmode / no-pme / no-psnr / no-ssim / log-level=2 / input-csp=1 / input-res=1920x1080 / interlace=0 / total-frames=46543 / level-idc=0 / high-tier=1 / uhd-bd=0 / ref=4 / no-allow-non-conformance / no-repeat-headers / annexb / no-aud / no-hrd / info / hash=0 / no-temporal-layers / open-gop / min-keyint=23 / keyint=250 / gop-lookahead=0 / bframes=8 / b-adapt=2 / b-pyramid / bframe-bias=0 / rc-lookahead=120 / lookahead-slices=4 / scenecut=40 / hist-scenecut=0 / radl=0 / no-splice / no-intra-refresh / ctu=64 / min-cu-size=8 / rect / no-amp / max-tu-size=32 / tu-inter-depth=1 / tu-intra-depth=1 / limit-tu=0 / rdoq-level=2 / dynamic-rd=0.00 / no-ssim-rd / signhide / no-tskip / nr-intra=0 / nr-inter=0 / no-constrained-intra / strong-intra-smoothing / max-merge=3 / limit-refs=3 / limit-modes / me=3 / subme=5 / merange=57 / temporal-mvp / no-frame-dup / no-hme / weightp / no-weightb / no-analyze-src-pics / deblock=0:0 / sao / no-sao-non-deblock / rd=4 / selective-sao=4 / no-early-skip / rskip / no-fast-intra / no-tskip-fast / no-cu-lossless / no-b-intra / no-splitrd-skip / rdpenalty=0 / psy-rd=1.00 / psy-rdoq=1.00 / no-rd-refine / no-lossless / cbqpoffs=0 / crqpoffs=0 / rc=crf / crf=19.5 / qcomp=0.70 / qpstep=4 / stats-write=0 / stats-read=0 / ipratio=1.40 / pbratio=1.30 / aq-mode=3 / aq-strength=1.00 / cutree / zone-count=0 / no-strict-cbr / qg-size=32 / no-rc-grain / qpmax=69 / qpmin=0 / no-const-vbv / sar=0 / overscan=0 / videoformat=5 / range=0 / colorprim=2 / transfer=2 / colormatrix=2 / chromaloc=0 / display-window=0 / cll=0,0 / min-luma=0 / max-luma=1023 / log2-max-poc-lsb=8 / vui-timing-info / vui-hrd-info / slices=1 / no-opt-qp-pps / no-opt-ref-list-length-pps / no-multi-pass-opt-rps / scenecut-bias=0.05 / hist-threshold=0.01 / no-opt-cu-delta-qp / no-aq-motion / no-hdr10 / no-hdr10-opt / no-dhdr10-opt / no-idr-recovery-sei / analysis-reuse-level=0 / analysis-save-reuse-level=0 / analysis-load-reuse-level=0 / scale-factor=0 / refine-intra=0 / refine-inter=0 / refine-mv=1 / refine-ctu-distortion=0 / no-limit-sao / ctu-info=0 / no-lowpass-dct / refine-analysis-type=0 / copy-pic=1 / max-ausize-factor=1.0 / no-dynamic-refine / no-single-sei / no-hevc-aq / no-svt / no-field / qp-adaptation-range=1.00 / no-scenecut-aware-qpconformance-window-offsets / right=0 / bottom=0 / decoder-max-rate=0
Default                                  : Yes
Forced                                   : No

Audio
ID                                       : 2
Format                                   : AAC LC
Format/Info                              : Advanced Audio Codec Low Complexity
Codec ID                                 : A_AAC-2
Duration                                 : 32 min 21 s
Bit rate                                 : 168 kb/s
Channel(s)                               : 2 channels
Channel layout                           : L R
Sampling rate                            : 48.0 kHz
Frame rate                               : 46.875 FPS (1024 SPF)
Compression mode                         : Lossy
Delay relative to video                  : 20 ms
Stream size                              : 39.0 MiB (6%)
Title                                    : Stereo
Language                                 : Japanese
Default                                  : Yes
Forced                                   : No

Text #1
ID                                       : 3
Format                                   : ASS
Codec ID                                 : S_TEXT/ASS
Codec ID/Info                            : Advanced Sub Station Alpha
Duration                                 : 31 min 57 s
Bit rate                                 : 2 068 b/s
Count of elements                        : 3954
Compression mode                         : Lossless
Stream size                              : 484 KiB (0%)
Title                                    : MTBB(Without Honorifics)
Language                                 : English
Default                                  : Yes
Forced                                   : No

Text #2
ID                                       : 4
Format                                   : ASS
Codec ID                                 : S_TEXT/ASS
Codec ID/Info                            : Advanced Sub Station Alpha
Duration                                 : 31 min 57 s
Bit rate                                 : 2 074 b/s
Count of elements                        : 3954
Compression mode                         : Lossless
Stream size                              : 486 KiB (0%)
Title                                    : MTBB(With Honorifics)
Language                                 : English
Default                                  : No
Forced                                   : No

Text #3
ID                                       : 5
Format                                   : ASS
Codec ID                                 : S_TEXT/ASS
Codec ID/Info                            : Advanced Sub Station Alpha
Duration                                 : 31 min 57 s
Bit rate                                 : 167 b/s
Count of elements                        : 538
Compression mode                         : Lossless
Stream size                              : 39.1 KiB (0%)
Title                                    : Edo
Language                                 : English
Default                                  : No
Forced                                   : No

Menu
00:00:00.033                             : en:OP
00:01:00.050                             : en:Episode
00:30:40.100                             : en:ED

Other Files in this Torrent
03 Monogatari Final Season/05 Zoku Owarimonogatari/[DB]Zoku Owarimonogatari_-_06_(10bit_BD1080p_x265).mkv
beta
Anime DDL+NZB mirror
Current Time: 25/06/2024 15:10



About/FAQs

Discord