02 Monogatari Second Season/Arc 05 Koimonogatari/[DB]Koimonogatari_-_02_(10bit_BD1080p_x265).mkv


File Size327.5 MB (343,423,563 bytes)
DownloadAnonFiles | ClickNUpload | DownloadGG | KrakenFiles | MultiUp
  • BdUpload
  • DownAce
  • Fichier
  • FileCloud
  • Filerio
  • FilesCdn
  • IndiShare
  • Kbagi
  • Turbobit
  • UpToBox
  • Uppit
| ZippyShare
HashesCRC32: B6E6E6AD, MD5: 3B3C5FF0D46B3F494D00059EECD9C1B7, SHA1: 1DF33F7CE0253BD1BD9B3D766D97A6ACC1B8131B, SHA256: 1D22EF1DFE45C5BB35C646871EF04E0F7A5937C186C2E859685554C766CEE89E, ED2K: 2683D408D46796413B1906D5F55B4BF5
Screenshots
screenshotscreenshotscreenshotscreenshotscreenshot
SubtitlesAll Attachments | Official Subs [eng, PGS], MTBB(Without Honorifics) [eng, ASS], MTBB(With Honorifics) [eng, ASS], Commie [eng, ASS], Coalgirls [eng, ASS]
Additional Info
General
Unique ID                                : 313025342430220713786887624060143073575 (0xEB7E7CEFC93336F1AF742111C792F927)
Complete name                            : [DB]Koimonogatari_-_02_(10bit_BD1080p_x265).mkv
Format                                   : Matroska
Format version                           : Version 4
File size                                : 328 MiB
Duration                                 : 26 min 18 s
Overall bit rate                         : 1 740 kb/s
Encoded date                             : UTC 2022-05-07 18:06:00
Writing application                      : mkvmerge v65.0.0 ('Too Much') 64-bit
Writing library                          : libebml v1.4.2 + libmatroska v1.6.4
Cover                                    : Yes
Attachments                              : arial.ttf / IWATAMINCHOPROM-STR.TTF / cover.jpg / NewBaskerville.ttf / Reswysokr.otf / CenturyOldStyle-Light Bold.ttf / CenturyOldStyle-Light.ttf / IwaMinPro-Lt-Madoka.ttf / IwaOMinPro-Bd-Fate.ttf / LT.ttf / LT_italic.ttf / Montara-Gothic.otf / Montara-Italic.otf / ARIALUNI.TTF / CENTURY.TTF / CTMERCURIUSSTD-MEDIUM.OTF / IwaOMinPro-Bd-Fate_2.ttf / IwaOMinPro-Bd-Fate_5.ttf / LHF_Scriptana.ttf / MyriadPro-Regular_0.otf / RotisWTF.ttf

Video
ID                                       : 1
Format                                   : HEVC
Format/Info                              : High Efficiency Video Coding
Format profile                           : Main 10@L4@Main
Codec ID                                 : V_MPEGH/ISO/HEVC
Duration                                 : 26 min 18 s
Bit rate                                 : 1 407 kb/s
Width                                    : 1 920 pixels
Height                                   : 1 080 pixels
Display aspect ratio                     : 16:9
Frame rate mode                          : Constant
Frame rate                               : 23.976 (24000/1001) FPS
Color space                              : YUV
Chroma subsampling                       : 4:2:0
Bit depth                                : 10 bits
Bits/(Pixel*Frame)                       : 0.028
Stream size                              : 265 MiB (81%)
Writing library                          : x265 3.4+6-g73f96ff39:[Windows][GCC 11.0.0][64 bit] 10bit
Encoding settings                        : cpuid=1049583 / frame-threads=3 / numa-pools=8 / wpp / no-pmode / no-pme / no-psnr / no-ssim / log-level=2 / input-csp=1 / input-res=1920x1080 / interlace=0 / total-frames=37848 / level-idc=0 / high-tier=1 / uhd-bd=0 / ref=4 / no-allow-non-conformance / no-repeat-headers / annexb / no-aud / no-hrd / info / hash=0 / no-temporal-layers / open-gop / min-keyint=23 / keyint=250 / gop-lookahead=0 / bframes=8 / b-adapt=2 / b-pyramid / bframe-bias=0 / rc-lookahead=120 / lookahead-slices=4 / scenecut=40 / hist-scenecut=0 / radl=0 / no-splice / no-intra-refresh / ctu=64 / min-cu-size=8 / rect / no-amp / max-tu-size=32 / tu-inter-depth=1 / tu-intra-depth=1 / limit-tu=0 / rdoq-level=2 / dynamic-rd=0.00 / no-ssim-rd / signhide / no-tskip / nr-intra=0 / nr-inter=0 / no-constrained-intra / strong-intra-smoothing / max-merge=3 / limit-refs=3 / limit-modes / me=3 / subme=5 / merange=57 / temporal-mvp / no-frame-dup / no-hme / weightp / no-weightb / no-analyze-src-pics / deblock=0:0 / sao / no-sao-non-deblock / rd=4 / selective-sao=4 / no-early-skip / rskip / no-fast-intra / no-tskip-fast / no-cu-lossless / no-b-intra / no-splitrd-skip / rdpenalty=0 / psy-rd=1.00 / psy-rdoq=1.00 / no-rd-refine / no-lossless / cbqpoffs=0 / crqpoffs=0 / rc=crf / crf=19.5 / qcomp=0.70 / qpstep=4 / stats-write=0 / stats-read=0 / ipratio=1.40 / pbratio=1.30 / aq-mode=3 / aq-strength=1.00 / cutree / zone-count=0 / no-strict-cbr / qg-size=32 / no-rc-grain / qpmax=69 / qpmin=0 / no-const-vbv / sar=0 / overscan=0 / videoformat=5 / range=0 / colorprim=2 / transfer=2 / colormatrix=2 / chromaloc=0 / display-window=0 / cll=0,0 / min-luma=0 / max-luma=1023 / log2-max-poc-lsb=8 / vui-timing-info / vui-hrd-info / slices=1 / no-opt-qp-pps / no-opt-ref-list-length-pps / no-multi-pass-opt-rps / scenecut-bias=0.05 / hist-threshold=0.01 / no-opt-cu-delta-qp / no-aq-motion / no-hdr10 / no-hdr10-opt / no-dhdr10-opt / no-idr-recovery-sei / analysis-reuse-level=0 / analysis-save-reuse-level=0 / analysis-load-reuse-level=0 / scale-factor=0 / refine-intra=0 / refine-inter=0 / refine-mv=1 / refine-ctu-distortion=0 / no-limit-sao / ctu-info=0 / no-lowpass-dct / refine-analysis-type=0 / copy-pic=1 / max-ausize-factor=1.0 / no-dynamic-refine / no-single-sei / no-hevc-aq / no-svt / no-field / qp-adaptation-range=1.00 / no-scenecut-aware-qpconformance-window-offsets / right=0 / bottom=0 / decoder-max-rate=0
Default                                  : Yes
Forced                                   : No

Audio
ID                                       : 2
Format                                   : AAC LC
Format/Info                              : Advanced Audio Codec Low Complexity
Codec ID                                 : A_AAC-2
Duration                                 : 26 min 18 s
Bit rate                                 : 162 kb/s
Channel(s)                               : 2 channels
Channel layout                           : L R
Sampling rate                            : 48.0 kHz
Frame rate                               : 46.875 FPS (1024 SPF)
Compression mode                         : Lossy
Delay relative to video                  : 20 ms
Stream size                              : 30.5 MiB (9%)
Title                                    : Stereo
Language                                 : Japanese
Default                                  : Yes
Forced                                   : No

Text #1
ID                                       : 3
Format                                   : PGS
Muxing mode                              : zlib
Codec ID                                 : S_HDMV/PGS
Codec ID/Info                            : Picture based subtitle format used on BDs/HD-DVDs
Duration                                 : 26 min 3 s
Bit rate                                 : 47.6 kb/s
Count of elements                        : 574
Stream size                              : 8.87 MiB (3%)
Title                                    : Official Subs
Language                                 : English
Default                                  : No
Forced                                   : No

Text #2
ID                                       : 4
Format                                   : ASS
Codec ID                                 : S_TEXT/ASS
Codec ID/Info                            : Advanced Sub Station Alpha
Duration                                 : 26 min 15 s
Bit rate                                 : 1 657 b/s
Count of elements                        : 2998
Compression mode                         : Lossless
Stream size                              : 319 KiB (0%)
Title                                    : MTBB(Without Honorifics)
Language                                 : English
Default                                  : Yes
Forced                                   : No

Text #3
ID                                       : 5
Format                                   : ASS
Codec ID                                 : S_TEXT/ASS
Codec ID/Info                            : Advanced Sub Station Alpha
Duration                                 : 26 min 15 s
Bit rate                                 : 1 593 b/s
Count of elements                        : 2998
Compression mode                         : Lossless
Stream size                              : 307 KiB (0%)
Title                                    : MTBB(With Honorifics)
Language                                 : English
Default                                  : No
Forced                                   : No

Text #4
ID                                       : 6
Format                                   : ASS
Codec ID                                 : S_TEXT/ASS
Codec ID/Info                            : Advanced Sub Station Alpha
Duration                                 : 25 min 35 s
Bit rate                                 : 446 b/s
Count of elements                        : 940
Compression mode                         : Lossless
Stream size                              : 83.7 KiB (0%)
Title                                    : Commie
Language                                 : English
Default                                  : No
Forced                                   : No

Text #5
ID                                       : 7
Format                                   : ASS
Codec ID                                 : S_TEXT/ASS
Codec ID/Info                            : Advanced Sub Station Alpha
Duration                                 : 26 min 16 s
Bit rate                                 : 810 b/s
Count of elements                        : 1844
Compression mode                         : Lossless
Stream size                              : 156 KiB (0%)
Title                                    : Coalgirls
Language                                 : English
Default                                  : No
Forced                                   : No

Menu
00:00:00.033                             : en:Intro
00:05:38.980                             : en:OP
00:07:08.950                             : en:Episode
00:24:09.960                             : en:ED
00:25:39.930                             : en:Preview

Other Files in this Torrent
02 Monogatari Second Season/Arc 05 Koimonogatari/[DB]Koimonogatari_-_02_(10bit_BD1080p_x265).mkv
beta
Anime DDL+NZB mirror
Current Time: 29/05/2024 15:44



About/FAQs

Discord