Season 1/[Kosaka] One Punch Man - 12 - The Strongest Hero (1080p AV1 10Bit BluRay OPUS) [8448CA2B].mkv


File Size234.1 MB (245,491,824 bytes)
DownloadAnonFiles | ClickNUpload | DownloadGG | KrakenFiles | MultiUp
  • BdUpload
  • DownAce
  • Fichier
  • FileCloud
  • Filerio
  • FilesCdn
  • IndiShare
  • Kbagi
  • Turbobit
  • UpToBox
  • Uppit
| ZippyShare
HashesCRC32: 8448CA2B, MD5: DC98F4B7414F4EB550B13DBAB7A152A3, SHA1: 663DCE34781E39FB516CE92C696CD1AAF8887A8B, SHA256: D87B1204FCB3B6487793A3995C7654B5F2BC5712D83CBCDB943050FA9D3872D2, ED2K: 608D72D54E02D2E04B8F1D2BE3583125
Screenshots
screenshotscreenshotscreenshotscreenshotscreenshot
SubtitlesAll Attachments | Full Subtitles [0x539] [eng, ASS], Signs/Songs [0x539] [eng, ASS]
Additional Info
General
Unique ID                                : 197126233671396676698633979739091589277 (0x944D21B230712C2ED83B3D366081589D)
Complete name                            : [Kosaka] One Punch Man - 12 - The Strongest Hero (1080p AV1 10Bit BluRay OPUS) [8448CA2B].mkv
Format                                   : Matroska
Format version                           : Version 4
File size                                : 234 MiB
Duration                                 : 24 min 0 s
Overall bit rate                         : 1 364 kb/s
Movie name                               : One Punch Man - 12 - The Strongest Hero
Encoded date                             : UTC 2023-01-12 06:05:21
Writing application                      : mkvmerge v73.0.0 ('25 or 6 to 4') 64-bit
Writing library                          : libebml v1.4.4 + libmatroska v1.7.1 / Lavf59.27.100
Attachments                              : SubClearSans-Bold.ttf / SWZ721H.ttf / Ubuntu-B.ttf / Ubuntu-BI.ttf / Brush Strokes_0.ttf / Franchise-Bold-hinted_0.ttf / JennaSue_1.ttf

Video
ID                                       : 5
Format                                   : AV1
Format/Info                              : AOMedia Video 1
Format profile                           : Main@L4.0
Codec ID                                 : V_AV1
Duration                                 : 24 min 0 s
Bit rate                                 : 1 233 kb/s
Width                                    : 1 920 pixels
Height                                   : 1 080 pixels
Display aspect ratio                     : 16:9
Frame rate mode                          : Constant
Frame rate                               : 23.976 (24000/1001) FPS
Color space                              : YUV
Chroma subsampling                       : 4:2:0
Bit depth                                : 10 bits
Bits/(Pixel*Frame)                       : 0.025
Stream size                              : 212 MiB (90%)
Default                                  : Yes
Forced                                   : No
Color range                              : Limited

Audio #1
ID                                       : 3
Format                                   : Opus
Codec ID                                 : A_OPUS
Duration                                 : 24 min 0 s
Bit rate                                 : 60.4 kb/s
Channel(s)                               : 2 channels
Channel layout                           : L R
Sampling rate                            : 48.0 kHz
Frame rate                               : 50.000 FPS (960 SPF)
Bit depth                                : 16 bits
Compression mode                         : Lossy
Stream size                              : 10.4 MiB (4%)
Title                                    : OPUS
Writing library                          : Lavc59.37.100 libopus
Language                                 : Japanese
Default                                  : Yes
Forced                                   : No

Audio #2
ID                                       : 4
Format                                   : Opus
Codec ID                                 : A_OPUS
Duration                                 : 24 min 0 s
Bit rate                                 : 59.6 kb/s
Channel(s)                               : 2 channels
Channel layout                           : L R
Sampling rate                            : 48.0 kHz
Frame rate                               : 50.000 FPS (960 SPF)
Bit depth                                : 16 bits
Compression mode                         : Lossy
Stream size                              : 10.2 MiB (4%)
Title                                    : OPUS
Writing library                          : Lavc59.37.100 libopus
Language                                 : English
Default                                  : No
Forced                                   : No

Text #1
ID                                       : 1
Format                                   : ASS
Codec ID                                 : S_TEXT/ASS
Codec ID/Info                            : Advanced Sub Station Alpha
Duration                                 : 23 min 18 s
Bit rate                                 : 710 b/s
Count of elements                        : 919
Compression mode                         : Lossless
Stream size                              : 121 KiB (0%)
Title                                    : Full Subtitles [0x539]
Language                                 : English
Default                                  : Yes
Forced                                   : No

Text #2
ID                                       : 2
Format                                   : ASS
Codec ID                                 : S_TEXT/ASS
Codec ID/Info                            : Advanced Sub Station Alpha
Duration                                 : 19 min 42 s
Bit rate                                 : 719 b/s
Count of elements                        : 622
Compression mode                         : Lossless
Stream size                              : 104 KiB (0%)
Title                                    : Signs/Songs [0x539]
Language                                 : English
Default                                  : No
Forced                                   : Yes

Menu
00:00:00.000                             : :Prologue
00:00:51.051                             : :Part A
00:14:01.048                             : :Part B
00:20:17.424                             : :ED
00:22:42.903                             : :Epilogue

Other Files in this Torrent
Season 1/[Kosaka] One Punch Man - 12 - The Strongest Hero (1080p AV1 10Bit BluRay OPUS) [8448CA2B].mkv
beta
Anime DDL+NZB mirror
Current Time: 04/03/2024 12:04



About/FAQs

Discord