Season 1/[Kosaka] One Punch Man - 02 - The Lone Cyborg (1080p AV1 10Bit BluRay OPUS) [4FD9A6EE].mkv


File Size236.0 MB (247,497,659 bytes)
DownloadAnonFiles | ClickNUpload | DownloadGG | KrakenFiles | MultiUp
  • BdUpload
  • DownAce
  • Fichier
  • FileCloud
  • Filerio
  • FilesCdn
  • IndiShare
  • Kbagi
  • Turbobit
  • UpToBox
  • Uppit
| ZippyShare
HashesCRC32: 4FD9A6EE, MD5: 64BA8583C83FBF1659414A0FB0892BFE, SHA1: 069E4FACF7A0AE2C6C6A7B942866CC4C0462B6C8, SHA256: 2C4988BAF8A0104967C79799C17A5C9A83749C54FBB7423BF0A451B717F4FEE1, ED2K: 7286D9C34575958BB4C0450316844678
Screenshots
screenshotscreenshotscreenshotscreenshotscreenshot
SubtitlesAll Attachments | Full Subtitles [0x539] [eng, ASS], Signs/Songs [0x539] [eng, ASS]
Additional Info
General
Unique ID                                : 3745776451730813550653353400942466336 (0x2D16909A3B5669E5A62D51854F01520)
Complete name                            : [Kosaka] One Punch Man - 02 - The Lone Cyborg (1080p AV1 10Bit BluRay OPUS) [4FD9A6EE].mkv
Format                                   : Matroska
Format version                           : Version 4
File size                                : 236 MiB
Duration                                 : 24 min 19 s
Overall bit rate                         : 1 356 kb/s
Movie name                               : One Punch Man - 02 - The Lone Cyborg
Encoded date                             : UTC 2023-01-11 23:12:25
Writing application                      : mkvmerge v73.0.0 ('25 or 6 to 4') 64-bit
Writing library                          : libebml v1.4.4 + libmatroska v1.7.1 / Lavf59.27.100
Attachments                              : Candombe.ttf / DISTINKING-BOLD_0.OTF / Franchise-Bold-hinted_0.ttf / JennaSue_1.ttf / Ubuntu-B.ttf / Ubuntu-BI.ttf / BertoltBrecht.ttf / Brush Strokes_0.ttf / Bubblegun.ttf / CALIBRIB_0.TTF

Video
ID                                       : 5
Format                                   : AV1
Format/Info                              : AOMedia Video 1
Format profile                           : Main@L4.0
Codec ID                                 : V_AV1
Duration                                 : 24 min 19 s
Bit rate                                 : 1 207 kb/s
Width                                    : 1 920 pixels
Height                                   : 1 080 pixels
Display aspect ratio                     : 16:9
Frame rate mode                          : Constant
Frame rate                               : 23.976 (24000/1001) FPS
Color space                              : YUV
Chroma subsampling                       : 4:2:0
Bit depth                                : 10 bits
Bits/(Pixel*Frame)                       : 0.024
Stream size                              : 210 MiB (89%)
Default                                  : Yes
Forced                                   : No
Color range                              : Limited

Audio #1
ID                                       : 3
Format                                   : Opus
Codec ID                                 : A_OPUS
Duration                                 : 24 min 19 s
Bit rate                                 : 61.6 kb/s
Channel(s)                               : 2 channels
Channel layout                           : L R
Sampling rate                            : 48.0 kHz
Frame rate                               : 50.001 FPS (960 SPF)
Bit depth                                : 16 bits
Compression mode                         : Lossy
Stream size                              : 10.7 MiB (5%)
Title                                    : OPUS
Writing library                          : Lavc59.37.100 libopus
Language                                 : Japanese
Default                                  : Yes
Forced                                   : No

Audio #2
ID                                       : 4
Format                                   : Opus
Codec ID                                 : A_OPUS
Duration                                 : 24 min 19 s
Bit rate                                 : 61.0 kb/s
Channel(s)                               : 2 channels
Channel layout                           : L R
Sampling rate                            : 48.0 kHz
Frame rate                               : 50.001 FPS (960 SPF)
Bit depth                                : 16 bits
Compression mode                         : Lossy
Stream size                              : 10.6 MiB (4%)
Title                                    : OPUS
Writing library                          : Lavc59.37.100 libopus
Language                                 : English
Default                                  : No
Forced                                   : No

Text #1
ID                                       : 1
Format                                   : ASS
Codec ID                                 : S_TEXT/ASS
Codec ID/Info                            : Advanced Sub Station Alpha
Duration                                 : 24 min 18 s
Bit rate                                 : 5 392 b/s
Count of elements                        : 4706
Compression mode                         : Lossless
Stream size                              : 960 KiB (0%)
Title                                    : Full Subtitles [0x539]
Language                                 : English
Default                                  : Yes
Forced                                   : No

Text #2
ID                                       : 2
Format                                   : ASS
Codec ID                                 : S_TEXT/ASS
Codec ID/Info                            : Advanced Sub Station Alpha
Duration                                 : 24 min 0 s
Bit rate                                 : 5 352 b/s
Count of elements                        : 4398
Compression mode                         : Lossless
Stream size                              : 941 KiB (0%)
Title                                    : Signs/Songs [0x539]
Language                                 : English
Default                                  : No
Forced                                   : Yes

Menu
00:00:00.000                             : :Prologue
00:02:00.037                             : :OP
00:03:30.001                             : :Part A
00:11:17.969                             : :Part B
00:22:08.953                             : :ED
00:23:38.917                             : :Epilogue
00:23:59.938                             : :Preview

Other Files in this Torrent
Season 1/[Kosaka] One Punch Man - 02 - The Lone Cyborg (1080p AV1 10Bit BluRay OPUS) [4FD9A6EE].mkv
beta
Anime DDL+NZB mirror
Current Time: 26/05/2024 03:11



About/FAQs

Discord