Season 1/[Kosaka] One Punch Man - 07 - The Ultimate Disciple (1080p AV1 10Bit BluRay OPUS) [A536E005].mkv


File Size195.3 MB (204,756,246 bytes)
DownloadAnonFiles | ClickNUpload | DownloadGG | KrakenFiles | MultiUp
  • BdUpload
  • DownAce
  • Fichier
  • FileCloud
  • Filerio
  • FilesCdn
  • IndiShare
  • Kbagi
  • Turbobit
  • UpToBox
  • Uppit
| ZippyShare
HashesCRC32: A536E005, MD5: B54C219D57254C33D4829D27FD2BDA70, SHA1: EB4B04AD083BAE4D1C14AB2168322D227110B679, SHA256: AF84833D26C8E969EDF82C39DA4BCBC5BC3213F819AE83E500FDEED76BB0C7ED, ED2K: AE40BF94D7F0E9A87E0151ABFB1F3961
Screenshots
screenshotscreenshotscreenshotscreenshotscreenshot
SubtitlesAll Attachments | Full Subtitles [0x539] [eng, ASS], Signs/Songs [0x539] [eng, ASS]
Additional Info
General
Unique ID                                : 201569023257954930362983594811417246528 (0x97A4C8226DB6A43465AF18A720193B40)
Complete name                            : [Kosaka] One Punch Man - 07 - The Ultimate Disciple (1080p AV1 10Bit BluRay OPUS) [A536E005].mkv
Format                                   : Matroska
Format version                           : Version 4
File size                                : 195 MiB
Duration                                 : 24 min 20 s
Overall bit rate                         : 1 122 kb/s
Movie name                               : One Punch Man - 07 - The Greatest Apprentice
Encoded date                             : UTC 2023-01-12 02:33:33
Writing application                      : mkvmerge v73.0.0 ('25 or 6 to 4') 64-bit
Writing library                          : libebml v1.4.4 + libmatroska v1.7.1 / Lavf59.27.100
Attachments                              : Franchise-Bold-hinted_0.ttf / JennaSue_1.ttf / SubClearSans-Bold.ttf / tahoma_1.ttf / tahomabd.ttf / Tellural Bold.ttf / Ubuntu-B.ttf / Ubuntu-BI.ttf / AdobeHeiti-Kami_0.ttf / Brush Strokes_0.ttf / BrushStrokes-Bold.ttf

Video
ID                                       : 5
Format                                   : AV1
Format/Info                              : AOMedia Video 1
Format profile                           : Main@L4.0
Codec ID                                 : V_AV1
Duration                                 : 24 min 20 s
Bit rate                                 : 972 kb/s
Width                                    : 1 920 pixels
Height                                   : 1 080 pixels
Display aspect ratio                     : 16:9
Frame rate mode                          : Constant
Frame rate                               : 23.976 (24000/1001) FPS
Color space                              : YUV
Chroma subsampling                       : 4:2:0
Bit depth                                : 10 bits
Bits/(Pixel*Frame)                       : 0.020
Stream size                              : 169 MiB (87%)
Default                                  : Yes
Forced                                   : No
Color range                              : Limited

Audio #1
ID                                       : 3
Format                                   : Opus
Codec ID                                 : A_OPUS
Duration                                 : 24 min 20 s
Bit rate                                 : 61.3 kb/s
Channel(s)                               : 2 channels
Channel layout                           : L R
Sampling rate                            : 48.0 kHz
Frame rate                               : 50.000 FPS (960 SPF)
Bit depth                                : 16 bits
Compression mode                         : Lossy
Stream size                              : 10.7 MiB (5%)
Title                                    : OPUS
Writing library                          : Lavc59.37.100 libopus
Language                                 : Japanese
Default                                  : Yes
Forced                                   : No

Audio #2
ID                                       : 4
Format                                   : Opus
Codec ID                                 : A_OPUS
Duration                                 : 24 min 20 s
Bit rate                                 : 60.9 kb/s
Channel(s)                               : 2 channels
Channel layout                           : L R
Sampling rate                            : 48.0 kHz
Frame rate                               : 50.000 FPS (960 SPF)
Bit depth                                : 16 bits
Compression mode                         : Lossy
Stream size                              : 10.6 MiB (5%)
Title                                    : OPUS
Writing library                          : Lavc59.37.100 libopus
Language                                 : English
Default                                  : No
Forced                                   : No

Text #1
ID                                       : 1
Format                                   : ASS
Codec ID                                 : S_TEXT/ASS
Codec ID/Info                            : Advanced Sub Station Alpha
Duration                                 : 24 min 5 s
Bit rate                                 : 2 994 b/s
Count of elements                        : 3358
Compression mode                         : Lossless
Stream size                              : 528 KiB (0%)
Title                                    : Full Subtitles [0x539]
Language                                 : English
Default                                  : Yes
Forced                                   : No

Text #2
ID                                       : 2
Format                                   : ASS
Codec ID                                 : S_TEXT/ASS
Codec ID/Info                            : Advanced Sub Station Alpha
Duration                                 : 23 min 36 s
Bit rate                                 : 2 930 b/s
Count of elements                        : 3007
Compression mode                         : Lossless
Stream size                              : 507 KiB (0%)
Title                                    : Signs/Songs [0x539]
Language                                 : English
Default                                  : No
Forced                                   : Yes

Menu
00:00:00.000                             : :Prologue
00:01:18.996                             : :OP
00:02:49.044                             : :Part A
00:11:49.042                             : :Part B
00:22:12.081                             : :ED
00:23:42.046                             : :Epilogue
00:24:00.064                             : :Preview

Other Files in this Torrent
Season 1/[Kosaka] One Punch Man - 07 - The Ultimate Disciple (1080p AV1 10Bit BluRay OPUS) [A536E005].mkv
beta
Anime DDL+NZB mirror
Current Time: 29/05/2024 02:30



About/FAQs

Discord