Season 1/[Kosaka] One Punch Man - 11 - The Dominator of the Universe (1080p AV1 10Bit BluRay OPUS) [DF172959].mkv


File Size208.7 MB (218,785,645 bytes)
DownloadAnonFiles | ClickNUpload | DownloadGG | KrakenFiles | MultiUp
  • BdUpload
  • DownAce
  • Fichier
  • FileCloud
  • Filerio
  • FilesCdn
  • IndiShare
  • Kbagi
  • Turbobit
  • UpToBox
  • Uppit
| ZippyShare
HashesCRC32: DF172959, MD5: 45C3C590C69D2EB2DFA57E964F01817B, SHA1: 2A4707A95E3394A72380E6FA7A6FEAFD818CE42B, SHA256: 1305DCC962320541C770D017CDB5AFAAF71CB518DA1E6F0A857F8F2EFD79A5BF, ED2K: C10BCD2C9736B83E90431215586FE06C
Screenshots
screenshotscreenshotscreenshotscreenshotscreenshot
SubtitlesAll Attachments | Full Subtitles [0x539] [eng, ASS], Signs/Songs [0x539] [eng, ASS]
Additional Info
General
Unique ID                                : 254019242468208233640591452582413879487 (0xBF1A5398E9948C5C25A898B0FDE448BF)
Complete name                            : [Kosaka] One Punch Man - 11 - The Dominator of the Universe (1080p AV1 10Bit BluRay OPUS) [DF172959].mkv
Format                                   : Matroska
Format version                           : Version 4
File size                                : 209 MiB
Duration                                 : 24 min 20 s
Overall bit rate                         : 1 199 kb/s
Movie name                               : One Punch Man - 11 - The Dominator of the Universe
Encoded date                             : UTC 2023-01-12 05:21:11
Writing application                      : mkvmerge v73.0.0 ('25 or 6 to 4') 64-bit
Writing library                          : libebml v1.4.4 + libmatroska v1.7.1 / Lavf59.27.100
Attachments                              : AdobeHeiti-Kami_0.ttf / Brush Strokes_0.ttf / Franchise-Bold-hinted_0.ttf / JandaAmazingGrace-Regular.ttf / JandaEverydayCasual.ttf / JennaSue_1.ttf / Ubuntu-B.ttf / Ubuntu-BI.ttf

Video
ID                                       : 5
Format                                   : AV1
Format/Info                              : AOMedia Video 1
Format profile                           : Main@L4.0
Codec ID                                 : V_AV1
Duration                                 : 24 min 20 s
Bit rate                                 : 1 068 kb/s
Width                                    : 1 920 pixels
Height                                   : 1 080 pixels
Display aspect ratio                     : 16:9
Frame rate mode                          : Constant
Frame rate                               : 23.976 (24000/1001) FPS
Color space                              : YUV
Chroma subsampling                       : 4:2:0
Bit depth                                : 10 bits
Bits/(Pixel*Frame)                       : 0.021
Stream size                              : 186 MiB (89%)
Default                                  : Yes
Forced                                   : No
Color range                              : Limited

Audio #1
ID                                       : 3
Format                                   : Opus
Codec ID                                 : A_OPUS
Duration                                 : 24 min 20 s
Bit rate                                 : 60.5 kb/s
Channel(s)                               : 2 channels
Channel layout                           : L R
Sampling rate                            : 48.0 kHz
Frame rate                               : 50.000 FPS (960 SPF)
Bit depth                                : 16 bits
Compression mode                         : Lossy
Stream size                              : 10.5 MiB (5%)
Title                                    : OPUS
Writing library                          : Lavc59.37.100 libopus
Language                                 : Japanese
Default                                  : Yes
Forced                                   : No

Audio #2
ID                                       : 4
Format                                   : Opus
Codec ID                                 : A_OPUS
Duration                                 : 24 min 20 s
Bit rate                                 : 60.3 kb/s
Channel(s)                               : 2 channels
Channel layout                           : L R
Sampling rate                            : 48.0 kHz
Frame rate                               : 50.000 FPS (960 SPF)
Bit depth                                : 16 bits
Compression mode                         : Lossy
Stream size                              : 10.5 MiB (5%)
Title                                    : OPUS
Writing library                          : Lavc59.37.100 libopus
Language                                 : English
Default                                  : No
Forced                                   : No

Text #1
ID                                       : 1
Format                                   : ASS
Codec ID                                 : S_TEXT/ASS
Codec ID/Info                            : Advanced Sub Station Alpha
Duration                                 : 23 min 44 s
Bit rate                                 : 249 b/s
Count of elements                        : 505
Compression mode                         : Lossless
Stream size                              : 43.3 KiB (0%)
Title                                    : Full Subtitles [0x539]
Language                                 : English
Default                                  : Yes
Forced                                   : No

Text #2
ID                                       : 2
Format                                   : ASS
Codec ID                                 : S_TEXT/ASS
Codec ID/Info                            : Advanced Sub Station Alpha
Duration                                 : 22 min 9 s
Bit rate                                 : 164 b/s
Count of elements                        : 223
Compression mode                         : Lossless
Stream size                              : 26.6 KiB (0%)
Title                                    : Signs/Songs [0x539]
Language                                 : English
Default                                  : No
Forced                                   : Yes

Menu
00:00:00.000                             : :Prologue
00:02:15.010                             : :OP
00:03:45.016                             : :Part A
00:12:27.997                             : :Part B
00:22:29.974                             : :ED
00:24:00.022                             : :Preview

Other Files in this Torrent
Season 1/[Kosaka] One Punch Man - 11 - The Dominator of the Universe (1080p AV1 10Bit BluRay OPUS) [DF172959].mkv
beta
Anime DDL+NZB mirror
Current Time: 23/06/2024 02:08



About/FAQs

Discord