Season 1/[Kosaka] One Punch Man - 05 - The Ultimate Master (1080p AV1 10Bit BluRay OPUS) [426AF25D].mkv


File Size174.8 MB (183,243,304 bytes)
DownloadAnonFiles | ClickNUpload | DownloadGG | KrakenFiles | MultiUp
  • BdUpload
  • DownAce
  • Fichier
  • FileCloud
  • Filerio
  • FilesCdn
  • IndiShare
  • Kbagi
  • Turbobit
  • UpToBox
  • Uppit
| ZippyShare
HashesCRC32: 426AF25D, MD5: F3FBC0636E89903A23CB04C668235B8A, SHA1: 763E8B83D84E0A5FAF5379BE34E111D7E0AAF9FD, SHA256: D18F09A9B9A83F3A5D9BF2110504DA8FF5600053118FAFF250EC113E2A59581B, ED2K: 2D382587B137A168B1F5CCAC2596BF93
Screenshots
screenshotscreenshotscreenshotscreenshotscreenshot
SubtitlesAll Attachments | Full Subtitles [0x539] [eng, ASS], Signs/Songs [0x539] [eng, ASS]
Additional Info
General
Unique ID                                : 244826937225711553027720500391970448461 (0xB82FF3F52865BC8548E56614E219A44D)
Complete name                            : [Kosaka] One Punch Man - 05 - The Ultimate Master (1080p AV1 10Bit BluRay OPUS) [426AF25D].mkv
Format                                   : Matroska
Format version                           : Version 4
File size                                : 175 MiB
Duration                                 : 24 min 20 s
Overall bit rate                         : 1 004 kb/s
Movie name                               : One Punch Man - 05 - The Ultimate Mentor
Encoded date                             : UTC 2023-01-12 01:12:30
Writing application                      : mkvmerge v73.0.0 ('25 or 6 to 4') 64-bit
Writing library                          : libebml v1.4.4 + libmatroska v1.7.1 / Lavf59.27.100
Attachments                              : Copybook.TTF / CREABBRG.ttf / DFPLeiSho-SB.ttf / Franchise-Bold-hinted_0.ttf / JennaSue_1.ttf / LEVIBRUSH.TTF / SubClearSans-Bold.ttf / SWZ721H.ttf / Ubuntu-B.ttf / Ubuntu-BI.ttf / AllThatMatters.ttf / Brush Strokes_0.ttf / cambria.ttc / cambriab.ttf / CentraleSansRnd-ExtraBold.ttf / Cheboyga.ttf

Video
ID                                       : 5
Format                                   : AV1
Format/Info                              : AOMedia Video 1
Format profile                           : Main@L4.0
Codec ID                                 : V_AV1
Duration                                 : 24 min 20 s
Bit rate                                 : 837 kb/s
Width                                    : 1 920 pixels
Height                                   : 1 080 pixels
Display aspect ratio                     : 16:9
Frame rate mode                          : Constant
Frame rate                               : 23.976 (24000/1001) FPS
Color space                              : YUV
Chroma subsampling                       : 4:2:0
Bit depth                                : 10 bits
Bits/(Pixel*Frame)                       : 0.017
Stream size                              : 146 MiB (83%)
Default                                  : Yes
Forced                                   : No
Color range                              : Limited

Audio #1
ID                                       : 3
Format                                   : Opus
Codec ID                                 : A_OPUS
Duration                                 : 24 min 20 s
Bit rate                                 : 61.5 kb/s
Channel(s)                               : 2 channels
Channel layout                           : L R
Sampling rate                            : 48.0 kHz
Frame rate                               : 50.000 FPS (960 SPF)
Bit depth                                : 16 bits
Compression mode                         : Lossy
Stream size                              : 10.7 MiB (6%)
Title                                    : OPUS
Writing library                          : Lavc59.37.100 libopus
Language                                 : Japanese
Default                                  : Yes
Forced                                   : No

Audio #2
ID                                       : 4
Format                                   : Opus
Codec ID                                 : A_OPUS
Duration                                 : 24 min 20 s
Bit rate                                 : 61.5 kb/s
Channel(s)                               : 2 channels
Channel layout                           : L R
Sampling rate                            : 48.0 kHz
Frame rate                               : 50.000 FPS (960 SPF)
Bit depth                                : 16 bits
Compression mode                         : Lossy
Stream size                              : 10.7 MiB (6%)
Title                                    : OPUS
Writing library                          : Lavc59.37.100 libopus
Language                                 : English
Default                                  : No
Forced                                   : No

Text #1
ID                                       : 1
Format                                   : ASS
Codec ID                                 : S_TEXT/ASS
Codec ID/Info                            : Advanced Sub Station Alpha
Duration                                 : 24 min 18 s
Bit rate                                 : 7 338 b/s
Count of elements                        : 5229
Compression mode                         : Lossless
Stream size                              : 1.28 MiB (1%)
Title                                    : Full Subtitles [0x539]
Language                                 : English
Default                                  : Yes
Forced                                   : No

Text #2
ID                                       : 2
Format                                   : ASS
Codec ID                                 : S_TEXT/ASS
Codec ID/Info                            : Advanced Sub Station Alpha
Duration                                 : 24 min 18 s
Bit rate                                 : 7 230 b/s
Count of elements                        : 4918
Compression mode                         : Lossless
Stream size                              : 1.26 MiB (1%)
Title                                    : Signs/Songs [0x539]
Language                                 : English
Default                                  : No
Forced                                   : Yes

Menu
00:00:00.000                             : :Prologue
00:01:09.987                             : :OP
00:02:40.035                             : :Part A
00:12:05.016                             : :Part B
00:22:02.029                             : :ED
00:23:31.994                             : :Epilogue
00:24:00.022                             : :Preview

Other Files in this Torrent
Season 1/[Kosaka] One Punch Man - 05 - The Ultimate Master (1080p AV1 10Bit BluRay OPUS) [426AF25D].mkv
beta
Anime DDL+NZB mirror
Current Time: 29/05/2024 02:27



About/FAQs

Discord