OVAs/[Kosaka] One Punch Man OVA - 06 - The Murder Case That Was Too Impossible (1080p AV1 10Bit BluRay OPUS) [Dual-Audio] [7CF7402C].mkv


File Size70.09 MB (73,490,217 bytes)
DownloadAnonFiles | ClickNUpload | DownloadGG | KrakenFiles | MultiUp
  • BdUpload
  • DownAce
  • Fichier
  • FileCloud
  • Filerio
  • FilesCdn
  • IndiShare
  • Kbagi
  • Turbobit
  • UpToBox
  • Uppit
| ZippyShare
HashesCRC32: 7CF7402C, MD5: 0EE51AF09490991EBB0100D290209422, SHA1: 707EC7527C4FED93D437B9EBF59150B2964F761A, SHA256: BE82473FBCEB08FDC790298B095D891B4F842B7FECE848B1FCB1A174C87215C7, ED2K: 9C1DC58F5E2CCBBD591C4B1BCA1B1616
Screenshots
screenshotscreenshotscreenshotscreenshotscreenshot
SubtitlesAll Attachments | Full Subtitles [0x539] [eng, ASS], Signs/Songs [0x539] [eng, ASS]
Additional Info
General
Unique ID                                : 199400553385829415255086390096083614152 (0x96032650BA6F127EABB4E93CD428F9C8)
Complete name                            : [Kosaka] One Punch Man OVA - 06 - The Murder Case That Was Too Impossible (1080p AV1 10Bit BluRay OPUS) [Dual-Audio] [7CF7402C].mkv
Format                                   : Matroska
Format version                           : Version 4
File size                                : 70.1 MiB
Duration                                 : 12 min 18 s
Overall bit rate                         : 797 kb/s
Movie name                               : One Punch Man - OVA6 - The Murder Case That was Too Impossible
Encoded date                             : UTC 2023-01-12 08:14:37
Writing application                      : mkvmerge v73.0.0 ('25 or 6 to 4') 64-bit
Writing library                          : libebml v1.4.4 + libmatroska v1.7.1 / Lavf59.27.100
Attachments                              : RiiT.otf / SubClearSans-Bold.ttf / Ubuntu-B.ttf / Ubuntu-BI.ttf / Brush Strokes_0.ttf

Video
ID                                       : 5
Format                                   : AV1
Format/Info                              : AOMedia Video 1
Format profile                           : Main@L4.0
Codec ID                                 : V_AV1
Duration                                 : 12 min 18 s
Bit rate                                 : 613 kb/s
Width                                    : 1 920 pixels
Height                                   : 1 080 pixels
Display aspect ratio                     : 16:9
Frame rate mode                          : Constant
Frame rate                               : 23.976 (24000/1001) FPS
Color space                              : YUV
Chroma subsampling                       : 4:2:0
Bit depth                                : 10 bits
Bits/(Pixel*Frame)                       : 0.012
Stream size                              : 53.9 MiB (77%)
Default                                  : Yes
Forced                                   : No
Color range                              : Limited

Audio #1
ID                                       : 3
Format                                   : Opus
Codec ID                                 : A_OPUS
Duration                                 : 12 min 18 s
Bit rate                                 : 64.1 kb/s
Channel(s)                               : 2 channels
Channel layout                           : L R
Sampling rate                            : 48.0 kHz
Frame rate                               : 50.000 FPS (960 SPF)
Bit depth                                : 16 bits
Compression mode                         : Lossy
Stream size                              : 5.64 MiB (8%)
Title                                    : OPUS
Writing library                          : Lavc59.37.100 libopus
Language                                 : Japanese
Default                                  : Yes
Forced                                   : No

Audio #2
ID                                       : 4
Format                                   : Opus
Codec ID                                 : A_OPUS
Duration                                 : 12 min 18 s
Bit rate                                 : 64.4 kb/s
Channel(s)                               : 2 channels
Channel layout                           : L R
Sampling rate                            : 48.0 kHz
Frame rate                               : 50.000 FPS (960 SPF)
Bit depth                                : 16 bits
Compression mode                         : Lossy
Stream size                              : 5.67 MiB (8%)
Title                                    : OPUS
Writing library                          : Lavc59.37.100 libopus
Language                                 : English
Default                                  : No
Forced                                   : No

Text #1
ID                                       : 1
Format                                   : ASS
Codec ID                                 : S_TEXT/ASS
Codec ID/Info                            : Advanced Sub Station Alpha
Duration                                 : 12 min 16 s
Bit rate                                 : 284 b/s
Count of elements                        : 347
Compression mode                         : Lossless
Stream size                              : 25.6 KiB (0%)
Title                                    : Full Subtitles [0x539]
Language                                 : English
Default                                  : Yes
Forced                                   : No

Text #2
ID                                       : 2
Format                                   : ASS
Codec ID                                 : S_TEXT/ASS
Codec ID/Info                            : Advanced Sub Station Alpha
Duration                                 : 12 min 16 s
Bit rate                                 : 146 b/s
Count of elements                        : 152
Compression mode                         : Lossless
Stream size                              : 13.2 KiB (0%)
Title                                    : Signs/Songs [0x539]
Language                                 : English
Default                                  : No
Forced                                   : Yes

Menu
00:00:00.000                             : :Episode
00:10:44.060                             : :ED

Other Files in this Torrent
OVAs/[Kosaka] One Punch Man OVA - 06 - The Murder Case That Was Too Impossible (1080p AV1 10Bit BluRay OPUS) [Dual-Audio] [7CF7402C].mkv
beta
Anime DDL+NZB mirror
Current Time: 09/12/2023 07:49



About/FAQs

Discord