Season 1/[Kosaka] One Punch Man - 10 - Unparalleled Peril (1080p AV1 10Bit BluRay OPUS) [374538C9].mkv


File Size160.8 MB (168,584,250 bytes)
DownloadAnonFiles | ClickNUpload | DownloadGG | KrakenFiles | MultiUp
  • BdUpload
  • DownAce
  • Fichier
  • FileCloud
  • Filerio
  • FilesCdn
  • IndiShare
  • Kbagi
  • Turbobit
  • UpToBox
  • Uppit
| ZippyShare
HashesCRC32: 374538C9, MD5: F481B6EA8013F1E5824A6E262F853575, SHA1: 256840FAC686D6276F082481A9C5FCBE4495E9F9, SHA256: 7CBE1E3FF7098C20CA42296499EACB8AFF17FBBF3805DDF6CA2A93398D4BD716, ED2K: 71BB30B6238D1D83B0DA12A0F41D1F69
Screenshots
screenshotscreenshotscreenshotscreenshotscreenshot
SubtitlesAll Attachments | Full Subtitles [0x539] [eng, ASS], Signs/Songs [0x539] [eng, ASS]
Additional Info
General
Unique ID                                : 275517741715005401660076573653086853637 (0xCF46C97223D508A818DDD09F92D55A05)
Complete name                            : [Kosaka] One Punch Man - 10 - Unparalleled Peril (1080p AV1 10Bit BluRay OPUS) [374538C9].mkv
Format                                   : Matroska
Format version                           : Version 4
File size                                : 161 MiB
Duration                                 : 24 min 20 s
Overall bit rate                         : 924 kb/s
Movie name                               : One Punch Man - 10 - Unparalleled Peril
Encoded date                             : UTC 2023-01-12 04:39:07
Writing application                      : mkvmerge v73.0.0 ('25 or 6 to 4') 64-bit
Writing library                          : libebml v1.4.4 + libmatroska v1.7.1 / Lavf59.27.100
Attachments                              : Franchise-Bold-hinted_0.ttf / JennaSue_1.ttf / LibbyHand.ttf / SubClearSans-Bold.ttf / Ubuntu-B.ttf / Ubuntu-BI.ttf / Brush Strokes_0.ttf / DISTInking-Regular.otf

Video
ID                                       : 5
Format                                   : AV1
Format/Info                              : AOMedia Video 1
Format profile                           : Main@L4.0
Codec ID                                 : V_AV1
Duration                                 : 24 min 20 s
Bit rate                                 : 791 kb/s
Width                                    : 1 920 pixels
Height                                   : 1 080 pixels
Display aspect ratio                     : 16:9
Frame rate mode                          : Constant
Frame rate                               : 23.976 (24000/1001) FPS
Color space                              : YUV
Chroma subsampling                       : 4:2:0
Bit depth                                : 10 bits
Bits/(Pixel*Frame)                       : 0.016
Stream size                              : 138 MiB (86%)
Default                                  : Yes
Forced                                   : No
Color range                              : Limited

Audio #1
ID                                       : 3
Format                                   : Opus
Codec ID                                 : A_OPUS
Duration                                 : 24 min 20 s
Bit rate                                 : 60.9 kb/s
Channel(s)                               : 2 channels
Channel layout                           : L R
Sampling rate                            : 48.0 kHz
Frame rate                               : 50.000 FPS (960 SPF)
Bit depth                                : 16 bits
Compression mode                         : Lossy
Stream size                              : 10.6 MiB (7%)
Title                                    : OPUS
Writing library                          : Lavc59.37.100 libopus
Language                                 : Japanese
Default                                  : Yes
Forced                                   : No

Audio #2
ID                                       : 4
Format                                   : Opus
Codec ID                                 : A_OPUS
Duration                                 : 24 min 20 s
Bit rate                                 : 61.3 kb/s
Channel(s)                               : 2 channels
Channel layout                           : L R
Sampling rate                            : 48.0 kHz
Frame rate                               : 50.000 FPS (960 SPF)
Bit depth                                : 16 bits
Compression mode                         : Lossy
Stream size                              : 10.7 MiB (7%)
Title                                    : OPUS
Writing library                          : Lavc59.37.100 libopus
Language                                 : English
Default                                  : No
Forced                                   : No

Text #1
ID                                       : 1
Format                                   : ASS
Codec ID                                 : S_TEXT/ASS
Codec ID/Info                            : Advanced Sub Station Alpha
Duration                                 : 24 min 1 s
Bit rate                                 : 439 b/s
Count of elements                        : 777
Compression mode                         : Lossless
Stream size                              : 77.4 KiB (0%)
Title                                    : Full Subtitles [0x539]
Language                                 : English
Default                                  : Yes
Forced                                   : No

Text #2
ID                                       : 2
Format                                   : ASS
Codec ID                                 : S_TEXT/ASS
Codec ID/Info                            : Advanced Sub Station Alpha
Duration                                 : 23 min 7 s
Bit rate                                 : 327 b/s
Count of elements                        : 434
Compression mode                         : Lossless
Stream size                              : 55.5 KiB (0%)
Title                                    : Signs/Songs [0x539]
Language                                 : English
Default                                  : No
Forced                                   : Yes

Menu
00:00:00.000                             : :Prologue
00:01:16.994                             : :OP
00:02:47.042                             : :Part A
00:15:01.984                             : :Part B
00:22:29.974                             : :ED
00:24:00.022                             : :Preview

Other Files in this Torrent
Season 1/[Kosaka] One Punch Man - 10 - Unparalleled Peril (1080p AV1 10Bit BluRay OPUS) [374538C9].mkv
beta
Anime DDL+NZB mirror
Current Time: 20/07/2024 02:35



About/FAQs

Discord