Season 1/[Kosaka] One Punch Man - 01 - The Strongest Man (1080p AV1 10Bit BluRay OPUS) [D86E8120].mkv


File Size209.7 MB (219,875,796 bytes)
DownloadAnonFiles | ClickNUpload | DownloadGG | KrakenFiles | MultiUp
  • BdUpload
  • DownAce
  • Fichier
  • FileCloud
  • Filerio
  • FilesCdn
  • IndiShare
  • Kbagi
  • Turbobit
  • UpToBox
  • Uppit
| ZippyShare
HashesCRC32: D86E8120, MD5: 58BA088A66FBD4948BB1774923705DAE, SHA1: 174547BE541F0581A77C3DB45F80EC9A3682273A, SHA256: D34D782A4834EC2F2D81B1343F5E30D19C3D962171F6CF932EAE5F3620FB297A, ED2K: 479D470E0DDBDB965D3DE0A4B6DBFDF9
Screenshots
screenshotscreenshotscreenshotscreenshotscreenshot
SubtitlesAll Attachments | Full Subtitles [0x539] [eng, ASS], Signs/Songs [0x539] [eng, ASS]
Additional Info
General
Unique ID                                : 262718883540360661945838248091628880951 (0xC5A5D1049CE3128611839951FA744437)
Complete name                            : [Kosaka] One Punch Man - 01 - The Strongest Man (1080p AV1 10Bit BluRay OPUS) [D86E8120].mkv
Format                                   : Matroska
Format version                           : Version 4
File size                                : 210 MiB
Duration                                 : 24 min 20 s
Overall bit rate                         : 1 205 kb/s
Movie name                               : One Punch Man - 01 - The Strongest Man
Encoded date                             : UTC 2023-01-11 22:29:12
Writing application                      : mkvmerge v73.0.0 ('25 or 6 to 4') 64-bit
Writing library                          : libebml v1.4.4 + libmatroska v1.7.1 / Lavf59.27.100
Attachments                              : JennaSue_1.ttf / SubClearSans-Bold.ttf / Ubuntu-B.ttf / Ubuntu-BI.ttf / Brush Strokes_0.ttf / CALIBRIB_0.TTF / Fela.otf / Franchise-Bold-hinted_0.ttf

Video
ID                                       : 5
Format                                   : AV1
Format/Info                              : AOMedia Video 1
Format profile                           : Main@L4.0
Codec ID                                 : V_AV1
Duration                                 : 24 min 20 s
Bit rate                                 : 1 068 kb/s
Width                                    : 1 920 pixels
Height                                   : 1 080 pixels
Display aspect ratio                     : 16:9
Frame rate mode                          : Constant
Frame rate                               : 23.976 (24000/1001) FPS
Color space                              : YUV
Chroma subsampling                       : 4:2:0
Bit depth                                : 10 bits
Bits/(Pixel*Frame)                       : 0.021
Stream size                              : 186 MiB (89%)
Default                                  : Yes
Forced                                   : No
Color range                              : Limited

Audio #1
ID                                       : 3
Format                                   : Opus
Codec ID                                 : A_OPUS
Duration                                 : 24 min 20 s
Bit rate                                 : 59.6 kb/s
Channel(s)                               : 2 channels
Channel layout                           : L R
Sampling rate                            : 48.0 kHz
Frame rate                               : 50.000 FPS (960 SPF)
Bit depth                                : 16 bits
Compression mode                         : Lossy
Stream size                              : 10.4 MiB (5%)
Title                                    : OPUS
Writing library                          : Lavc59.37.100 libopus
Language                                 : Japanese
Default                                  : Yes
Forced                                   : No

Audio #2
ID                                       : 4
Format                                   : Opus
Codec ID                                 : A_OPUS
Duration                                 : 24 min 20 s
Bit rate                                 : 59.4 kb/s
Channel(s)                               : 2 channels
Channel layout                           : L R
Sampling rate                            : 48.0 kHz
Frame rate                               : 50.000 FPS (960 SPF)
Bit depth                                : 16 bits
Compression mode                         : Lossy
Stream size                              : 10.3 MiB (5%)
Title                                    : OPUS
Writing library                          : Lavc59.37.100 libopus
Language                                 : English
Default                                  : No
Forced                                   : No

Text #1
ID                                       : 1
Format                                   : ASS
Codec ID                                 : S_TEXT/ASS
Codec ID/Info                            : Advanced Sub Station Alpha
Duration                                 : 23 min 59 s
Bit rate                                 : 505 b/s
Count of elements                        : 775
Compression mode                         : Lossless
Stream size                              : 88.8 KiB (0%)
Title                                    : Full Subtitles [0x539]
Language                                 : English
Default                                  : Yes
Forced                                   : No

Text #2
ID                                       : 2
Format                                   : ASS
Codec ID                                 : S_TEXT/ASS
Codec ID/Info                            : Advanced Sub Station Alpha
Duration                                 : 23 min 5 s
Bit rate                                 : 435 b/s
Count of elements                        : 523
Compression mode                         : Lossless
Stream size                              : 73.7 KiB (0%)
Title                                    : Signs/Songs [0x539]
Language                                 : English
Default                                  : No
Forced                                   : Yes

Menu
00:00:00.000                             : :Prologue
00:03:10.982                             : :OP
00:04:41.031                             : :Part A
00:14:45.051                             : :Part B
00:22:10.120                             : :ED
00:23:40.085                             : :Epilogue
00:24:00.105                             : :Preview

Other Files in this Torrent
Season 1/[Kosaka] One Punch Man - 01 - The Strongest Man (1080p AV1 10Bit BluRay OPUS) [D86E8120].mkv
beta
Anime DDL+NZB mirror
Current Time: 20/06/2024 21:21



About/FAQs

Discord