Season 1/[Kosaka] One Punch Man - 08 - The Deep Sea King (1080p AV1 10Bit BluRay OPUS) [6BD15AF0].mkv


File Size238.4 MB (249,969,861 bytes)
DownloadAnonFiles | ClickNUpload | DownloadGG | KrakenFiles | MultiUp
  • BdUpload
  • DownAce
  • Fichier
  • FileCloud
  • Filerio
  • FilesCdn
  • IndiShare
  • Kbagi
  • Turbobit
  • UpToBox
  • Uppit
| ZippyShare
HashesCRC32: 6BD15AF0, MD5: 33DEA6076D6D03D87B9CC9D3A49A86A0, SHA1: 1C4D101F87F6FA71CB8A6C9FACC07B92171825C6, SHA256: 0E0C303D421963B30A1339CEF59990FB613E665151DA506C5E7B9B4017BA48E8, ED2K: E2B2F25DB4124E7DC852BD973E7DB2FC
Screenshots
screenshotscreenshotscreenshotscreenshotscreenshot
SubtitlesAll Attachments | Full Subtitles [0x539] [eng, ASS], Signs/Songs [0x539] [eng, ASS]
Additional Info
General
Unique ID                                : 47471521365309317449984522823307979776 (0x23B6AEB51034B3AD27037024440D6C00)
Complete name                            : [Kosaka] One Punch Man - 08 - The Deep Sea King (1080p AV1 10Bit BluRay OPUS) [6BD15AF0].mkv
Format                                   : Matroska
Format version                           : Version 4
File size                                : 238 MiB
Duration                                 : 24 min 20 s
Overall bit rate                         : 1 370 kb/s
Movie name                               : One Punch Man - 08 - The Deep Sea King
Encoded date                             : UTC 2023-01-12 03:17:48
Writing application                      : mkvmerge v73.0.0 ('25 or 6 to 4') 64-bit
Writing library                          : libebml v1.4.4 + libmatroska v1.7.1 / Lavf59.27.100
Attachments                              : JennaSue_1.ttf / macron finnetier 0.3.ttf / RolandBecker Bold.ttf / SubClearSans-Bold.ttf / Swiss 721 Thin BT_0.ttf / tahoma_1.ttf / Tellural.ttf / Ubuntu-B.ttf / Ubuntu-BI.ttf / AdobeHeiti-Kami_0.ttf / ARIACB.ttf / Brush Strokes_0.ttf / Franchise-Bold-hinted_0.ttf

Video
ID                                       : 5
Format                                   : AV1
Format/Info                              : AOMedia Video 1
Format profile                           : Main@L4.0
Codec ID                                 : V_AV1
Duration                                 : 24 min 20 s
Bit rate                                 : 1 228 kb/s
Width                                    : 1 920 pixels
Height                                   : 1 080 pixels
Display aspect ratio                     : 16:9
Frame rate mode                          : Constant
Frame rate                               : 23.976 (24000/1001) FPS
Color space                              : YUV
Chroma subsampling                       : 4:2:0
Bit depth                                : 10 bits
Bits/(Pixel*Frame)                       : 0.025
Stream size                              : 214 MiB (90%)
Default                                  : Yes
Forced                                   : No
Color range                              : Limited

Audio #1
ID                                       : 3
Format                                   : Opus
Codec ID                                 : A_OPUS
Duration                                 : 24 min 20 s
Bit rate                                 : 59.7 kb/s
Channel(s)                               : 2 channels
Channel layout                           : L R
Sampling rate                            : 48.0 kHz
Frame rate                               : 50.000 FPS (960 SPF)
Bit depth                                : 16 bits
Compression mode                         : Lossy
Stream size                              : 10.4 MiB (4%)
Title                                    : OPUS
Writing library                          : Lavc59.37.100 libopus
Language                                 : Japanese
Default                                  : Yes
Forced                                   : No

Audio #2
ID                                       : 4
Format                                   : Opus
Codec ID                                 : A_OPUS
Duration                                 : 24 min 20 s
Bit rate                                 : 59.5 kb/s
Channel(s)                               : 2 channels
Channel layout                           : L R
Sampling rate                            : 48.0 kHz
Frame rate                               : 50.000 FPS (960 SPF)
Bit depth                                : 16 bits
Compression mode                         : Lossy
Stream size                              : 10.4 MiB (4%)
Title                                    : OPUS
Writing library                          : Lavc59.37.100 libopus
Language                                 : English
Default                                  : No
Forced                                   : No

Text #1
ID                                       : 1
Format                                   : ASS
Codec ID                                 : S_TEXT/ASS
Codec ID/Info                            : Advanced Sub Station Alpha
Duration                                 : 24 min 16 s
Bit rate                                 : 2 416 b/s
Count of elements                        : 3345
Compression mode                         : Lossless
Stream size                              : 430 KiB (0%)
Title                                    : Full Subtitles [0x539]
Language                                 : English
Default                                  : Yes
Forced                                   : No

Text #2
ID                                       : 2
Format                                   : ASS
Codec ID                                 : S_TEXT/ASS
Codec ID/Info                            : Advanced Sub Station Alpha
Duration                                 : 23 min 23 s
Bit rate                                 : 2 383 b/s
Count of elements                        : 2979
Compression mode                         : Lossless
Stream size                              : 408 KiB (0%)
Title                                    : Signs/Songs [0x539]
Language                                 : English
Default                                  : No
Forced                                   : Yes

Menu
00:00:00.000                             : :Prologue
00:02:11.006                             : :OP
00:03:41.012                             : :Part A
00:15:06.948                             : :Part B
00:22:29.932                             : :ED
00:23:59.980                             : :Preview

Other Files in this Torrent
Season 1/[Kosaka] One Punch Man - 08 - The Deep Sea King (1080p AV1 10Bit BluRay OPUS) [6BD15AF0].mkv
beta
Anime DDL+NZB mirror
Current Time: 26/05/2024 02:15



About/FAQs

Discord