OVAs/[Kosaka] One Punch Man OVA - 02 - The Disciple Who`s a Poor Talker (1080p AV1 10Bit BluRay OPUS) [Dual-Audio] [3492655C].mkv


File Size61.12 MB (64,083,895 bytes)
DownloadAnonFiles | ClickNUpload | DownloadGG | KrakenFiles | MultiUp
  • BdUpload
  • DownAce
  • Fichier
  • FileCloud
  • Filerio
  • FilesCdn
  • IndiShare
  • Kbagi
  • Turbobit
  • UpToBox
  • Uppit
| ZippyShare
HashesCRC32: 3492655C, MD5: F654763349FD2EA84E1F97A9D7B675E1, SHA1: 05497D4C2F466BFF2BCE746F5FA0562D45B2F5A6, SHA256: BA3E9AFD78778D0CA3801BDBA023210BCE6D601A004008B4BCE0E9B0280085BB, ED2K: B110F67AB3BB67E083F7B4053AA8B950
Screenshots
screenshotscreenshotscreenshotscreenshotscreenshot
SubtitlesAll Attachments | Full Subtitles [0x539] [eng, ASS], Signs/Songs [0x539] [eng, ASS]
Additional Info
General
Unique ID                                : 88644871589797279671048113963674809993 (0x42B0619A5414FE75653E6986460EB689)
Complete name                            : [Kosaka] One Punch Man OVA - 02 - The Disciple Who`s a Poor Talker (1080p AV1 10Bit BluRay OPUS) [Dual-Audio] [3492655C].mkv
Format                                   : Matroska
Format version                           : Version 4
File size                                : 61.1 MiB
Duration                                 : 11 min 38 s
Overall bit rate                         : 733 kb/s
Movie name                               : One Punch Man - OVA2 - The Apprentice Who Sucks at Storytelling
Encoded date                             : UTC 2023-01-12 07:00:53
Writing application                      : mkvmerge v73.0.0 ('25 or 6 to 4') 64-bit
Writing library                          : libebml v1.4.4 + libmatroska v1.7.1 / Lavf59.27.100
Attachments                              : RiiT.otf / Ubuntu-B.ttf / Brush Strokes_0.ttf / JENKINSV2.TTF

Video
ID                                       : 5
Format                                   : AV1
Format/Info                              : AOMedia Video 1
Format profile                           : Main@L4.0
Codec ID                                 : V_AV1
Duration                                 : 11 min 38 s
Bit rate                                 : 560 kb/s
Width                                    : 1 920 pixels
Height                                   : 1 080 pixels
Display aspect ratio                     : 16:9
Frame rate mode                          : Constant
Frame rate                               : 23.976 (24000/1001) FPS
Color space                              : YUV
Chroma subsampling                       : 4:2:0
Bit depth                                : 10 bits
Bits/(Pixel*Frame)                       : 0.011
Stream size                              : 46.7 MiB (76%)
Default                                  : Yes
Forced                                   : No
Color range                              : Limited

Audio #1
ID                                       : 3
Format                                   : Opus
Codec ID                                 : A_OPUS
Duration                                 : 11 min 38 s
Bit rate                                 : 60.6 kb/s
Channel(s)                               : 2 channels
Channel layout                           : L R
Sampling rate                            : 48.0 kHz
Frame rate                               : 50.000 FPS (960 SPF)
Bit depth                                : 16 bits
Compression mode                         : Lossy
Stream size                              : 5.05 MiB (8%)
Title                                    : OPUS
Writing library                          : Lavc59.37.100 libopus
Language                                 : Japanese
Default                                  : Yes
Forced                                   : No

Audio #2
ID                                       : 4
Format                                   : Opus
Codec ID                                 : A_OPUS
Duration                                 : 11 min 38 s
Bit rate                                 : 60.9 kb/s
Channel(s)                               : 2 channels
Channel layout                           : L R
Sampling rate                            : 48.0 kHz
Frame rate                               : 50.000 FPS (960 SPF)
Bit depth                                : 16 bits
Compression mode                         : Lossy
Stream size                              : 5.07 MiB (8%)
Title                                    : OPUS
Writing library                          : Lavc59.37.100 libopus
Language                                 : English
Default                                  : No
Forced                                   : No

Text #1
ID                                       : 1
Format                                   : ASS
Codec ID                                 : S_TEXT/ASS
Codec ID/Info                            : Advanced Sub Station Alpha
Duration                                 : 11 min 37 s
Bit rate                                 : 353 b/s
Count of elements                        : 380
Compression mode                         : Lossless
Stream size                              : 30.1 KiB (0%)
Title                                    : Full Subtitles [0x539]
Language                                 : English
Default                                  : Yes
Forced                                   : No

Text #2
ID                                       : 2
Format                                   : ASS
Codec ID                                 : S_TEXT/ASS
Codec ID/Info                            : Advanced Sub Station Alpha
Duration                                 : 11 min 37 s
Bit rate                                 : 233 b/s
Count of elements                        : 186
Compression mode                         : Lossless
Stream size                              : 19.9 KiB (0%)
Title                                    : Signs/Songs [0x539]
Language                                 : English
Default                                  : No
Forced                                   : Yes

Menu
00:00:00.000                             : :Episode
00:10:05.021                             : :ED

Other Files in this Torrent
OVAs/[Kosaka] One Punch Man OVA - 02 - The Disciple Who`s a Poor Talker (1080p AV1 10Bit BluRay OPUS) [Dual-Audio] [3492655C].mkv
beta
Anime DDL+NZB mirror
Current Time: 28/11/2023 22:50



About/FAQs

Discord