OVAs/[Kosaka] One Punch Man OVA - 05 - The Sisters Who Have Too Much Going On (1080p AV1 10Bit BluRay OPUS) [Dual-Audio] [172A6631].mkv


File Size88.66 MB (92,966,991 bytes)
DownloadAnonFiles | ClickNUpload | DownloadGG | KrakenFiles | MultiUp
  • BdUpload
  • DownAce
  • Fichier
  • FileCloud
  • Filerio
  • FilesCdn
  • IndiShare
  • Kbagi
  • Turbobit
  • UpToBox
  • Uppit
| ZippyShare
HashesCRC32: 172A6631, MD5: 946ED6CA6C7CE724529B6FFDF02F6FFE, SHA1: B6CF12C7FAB89AA803AF3F7FABEAAC7D95EAE53B, SHA256: FAFAFF4978BF3C096F0C1EDB6AEFB276463417A9B89CA9344C4DCCED73C5341E, ED2K: 45828041F21218B050F4FD52649DA506
Screenshots
screenshotscreenshotscreenshotscreenshotscreenshot
SubtitlesAll Attachments | Full Subtitles [0x539] [eng, ASS], Signs/Songs [0x539] [eng, ASS]
Additional Info
General
Unique ID                                : 117529750145573420740398996071035948986 (0x586B6811719BB738C8A1E563696FCFBA)
Complete name                            : [Kosaka] One Punch Man OVA - 05 - The Sisters Who Have Too Much Going On (1080p AV1 10Bit BluRay OPUS) [Dual-Audio] [172A6631].mkv
Format                                   : Matroska
Format version                           : Version 4
File size                                : 88.7 MiB
Duration                                 : 11 min 50 s
Overall bit rate                         : 1 047 kb/s
Movie name                               : One Punch Man - OVA5 - The Sisters With Too Much Going On
Encoded date                             : UTC 2023-01-12 07:56:41
Writing application                      : mkvmerge v73.0.0 ('25 or 6 to 4') 64-bit
Writing library                          : libebml v1.4.4 + libmatroska v1.7.1 / Lavf59.27.100
Attachments                              : edosz.ttf / RiiT.otf / SubClearSans-Bold.ttf / Ubuntu-B.ttf / Ubuntu-BI.ttf / bellgothicstd-black_0.otf / Brush Strokes_0.ttf

Video
ID                                       : 5
Format                                   : AV1
Format/Info                              : AOMedia Video 1
Format profile                           : Main@L4.0
Codec ID                                 : V_AV1
Duration                                 : 11 min 50 s
Bit rate                                 : 865 kb/s
Width                                    : 1 920 pixels
Height                                   : 1 080 pixels
Display aspect ratio                     : 16:9
Frame rate mode                          : Constant
Frame rate                               : 23.976 (24000/1001) FPS
Color space                              : YUV
Chroma subsampling                       : 4:2:0
Bit depth                                : 10 bits
Bits/(Pixel*Frame)                       : 0.017
Stream size                              : 73.3 MiB (83%)
Default                                  : Yes
Forced                                   : No
Color range                              : Limited

Audio #1
ID                                       : 3
Format                                   : Opus
Codec ID                                 : A_OPUS
Duration                                 : 11 min 50 s
Bit rate                                 : 62.0 kb/s
Channel(s)                               : 2 channels
Channel layout                           : L R
Sampling rate                            : 48.0 kHz
Frame rate                               : 50.001 FPS (960 SPF)
Bit depth                                : 16 bits
Compression mode                         : Lossy
Stream size                              : 5.25 MiB (6%)
Title                                    : OPUS
Writing library                          : Lavc59.37.100 libopus
Language                                 : Japanese
Default                                  : Yes
Forced                                   : No

Audio #2
ID                                       : 4
Format                                   : Opus
Codec ID                                 : A_OPUS
Duration                                 : 11 min 50 s
Bit rate                                 : 61.3 kb/s
Channel(s)                               : 2 channels
Channel layout                           : L R
Sampling rate                            : 48.0 kHz
Frame rate                               : 50.001 FPS (960 SPF)
Bit depth                                : 16 bits
Compression mode                         : Lossy
Stream size                              : 5.19 MiB (6%)
Title                                    : OPUS
Writing library                          : Lavc59.37.100 libopus
Language                                 : English
Default                                  : No
Forced                                   : No

Text #1
ID                                       : 1
Format                                   : ASS
Codec ID                                 : S_TEXT/ASS
Codec ID/Info                            : Advanced Sub Station Alpha
Duration                                 : 11 min 42 s
Bit rate                                 : 455 b/s
Count of elements                        : 440
Compression mode                         : Lossless
Stream size                              : 39.0 KiB (0%)
Title                                    : Full Subtitles [0x539]
Language                                 : English
Default                                  : Yes
Forced                                   : No

Text #2
ID                                       : 2
Format                                   : ASS
Codec ID                                 : S_TEXT/ASS
Codec ID/Info                            : Advanced Sub Station Alpha
Duration                                 : 11 min 0 s
Bit rate                                 : 369 b/s
Count of elements                        : 277
Compression mode                         : Lossless
Stream size                              : 29.8 KiB (0%)
Title                                    : Signs/Songs [0x539]
Language                                 : English
Default                                  : No
Forced                                   : Yes

Menu
00:00:00.000                             : :Episode
00:10:16.032                             : :ED

Other Files in this Torrent
OVAs/[Kosaka] One Punch Man OVA - 05 - The Sisters Who Have Too Much Going On (1080p AV1 10Bit BluRay OPUS) [Dual-Audio] [172A6631].mkv
beta
Anime DDL+NZB mirror
Current Time: 26/05/2024 03:27



About/FAQs

Discord