OVAs/[Kosaka] One Punch Man OVA - 04 - Bang, Who Is Too Overbearing (1080p AV1 10Bit BluRay OPUS) [Dual-Audio] [8F11C5D5].mkv


File Size86.93 MB (91,151,615 bytes)
DownloadAnonFiles | ClickNUpload | DownloadGG | KrakenFiles | MultiUp
  • BdUpload
  • DownAce
  • Fichier
  • FileCloud
  • Filerio
  • FilesCdn
  • IndiShare
  • Kbagi
  • Turbobit
  • UpToBox
  • Uppit
| ZippyShare
HashesCRC32: 8F11C5D5, MD5: 5CB57FB21064991C6245DD9692473164, SHA1: EB0EF08D51D3C998484B2E4C4CE6BF6E48CD0506, SHA256: AE425B8E0CD4AC2C0D9EF0C7E237AC5C2DDB22C7F6B35235FFE621C8E60CB543, ED2K: 739BDC7312849AF7F44FC2FD73A49CA0
Screenshots
screenshotscreenshotscreenshotscreenshotscreenshot
SubtitlesAll Attachments | Full Subtitles [0x539] [eng, ASS], Signs/Songs [0x539] [eng, ASS]
Additional Info
General
Unique ID                                : 163119920972053317439830121833161159578 (0x7AB7C10848108754BF509AA0A779F39A)
Complete name                            : [Kosaka] One Punch Man OVA - 04 - Bang, Who Is Too Overbearing (1080p AV1 10Bit BluRay OPUS) [Dual-Audio] [8F11C5D5].mkv
Format                                   : Matroska
Format version                           : Version 4
File size                                : 86.9 MiB
Duration                                 : 12 min 4 s
Overall bit rate                         : 1 006 kb/s
Movie name                               : One Punch Man - OVA4 - Bang, Who is Too Overbearing
Encoded date                             : UTC 2023-01-12 07:38:02
Writing application                      : mkvmerge v73.0.0 ('25 or 6 to 4') 64-bit
Writing library                          : libebml v1.4.4 + libmatroska v1.7.1 / Lavf59.27.100
Attachments                              : Ubuntu-B.ttf / Ubuntu-BI.ttf / Brush Strokes_0.ttf / Brush-cut v2.ttf / DFENKAISTRIPPED-W5G.TTF / DISTInking-Regular.otf / RiiT.otf

Video
ID                                       : 5
Format                                   : AV1
Format/Info                              : AOMedia Video 1
Format profile                           : Main@L4.0
Codec ID                                 : V_AV1
Duration                                 : 12 min 4 s
Bit rate                                 : 819 kb/s
Width                                    : 1 920 pixels
Height                                   : 1 080 pixels
Display aspect ratio                     : 16:9
Frame rate mode                          : Constant
Frame rate                               : 23.976 (24000/1001) FPS
Color space                              : YUV
Chroma subsampling                       : 4:2:0
Bit depth                                : 10 bits
Bits/(Pixel*Frame)                       : 0.016
Stream size                              : 70.8 MiB (81%)
Default                                  : Yes
Forced                                   : No
Color range                              : Limited

Audio #1
ID                                       : 3
Format                                   : Opus
Codec ID                                 : A_OPUS
Duration                                 : 12 min 4 s
Bit rate                                 : 64.0 kb/s
Channel(s)                               : 2 channels
Channel layout                           : L R
Sampling rate                            : 48.0 kHz
Frame rate                               : 50.001 FPS (960 SPF)
Bit depth                                : 16 bits
Compression mode                         : Lossy
Stream size                              : 5.53 MiB (6%)
Title                                    : OPUS
Writing library                          : Lavc59.37.100 libopus
Language                                 : Japanese
Default                                  : Yes
Forced                                   : No

Audio #2
ID                                       : 4
Format                                   : Opus
Codec ID                                 : A_OPUS
Duration                                 : 12 min 4 s
Bit rate                                 : 63.6 kb/s
Channel(s)                               : 2 channels
Channel layout                           : L R
Sampling rate                            : 48.0 kHz
Frame rate                               : 50.001 FPS (960 SPF)
Bit depth                                : 16 bits
Compression mode                         : Lossy
Stream size                              : 5.50 MiB (6%)
Title                                    : OPUS
Writing library                          : Lavc59.37.100 libopus
Language                                 : English
Default                                  : No
Forced                                   : No

Text #1
ID                                       : 1
Format                                   : ASS
Codec ID                                 : S_TEXT/ASS
Codec ID/Info                            : Advanced Sub Station Alpha
Duration                                 : 11 min 44 s
Bit rate                                 : 902 b/s
Count of elements                        : 615
Compression mode                         : Lossless
Stream size                              : 77.6 KiB (0%)
Title                                    : Full Subtitles [0x539]
Language                                 : English
Default                                  : Yes
Forced                                   : No

Text #2
ID                                       : 2
Format                                   : ASS
Codec ID                                 : S_TEXT/ASS
Codec ID/Info                            : Advanced Sub Station Alpha
Duration                                 : 11 min 33 s
Bit rate                                 : 782 b/s
Count of elements                        : 418
Compression mode                         : Lossless
Stream size                              : 66.3 KiB (0%)
Title                                    : Signs/Songs [0x539]
Language                                 : English
Default                                  : No
Forced                                   : Yes

Menu
00:00:00.000                             : :Episode
00:10:31.047                             : :ED

Other Files in this Torrent
OVAs/[Kosaka] One Punch Man OVA - 04 - Bang, Who Is Too Overbearing (1080p AV1 10Bit BluRay OPUS) [Dual-Audio] [8F11C5D5].mkv
beta
Anime DDL+NZB mirror
Current Time: 26/05/2024 01:57



About/FAQs

Discord