Season 1/[Kosaka] One Punch Man - 06 - The Terrifying City (1080p AV1 10Bit BluRay OPUS) [A83B79A0].mkv


File Size173.5 MB (181,908,093 bytes)
DownloadAnonFiles | ClickNUpload | DownloadGG | KrakenFiles | MultiUp
  • BdUpload
  • DownAce
  • Fichier
  • FileCloud
  • Filerio
  • FilesCdn
  • IndiShare
  • Kbagi
  • Turbobit
  • UpToBox
  • Uppit
| ZippyShare
HashesCRC32: A83B79A0, MD5: D40BC20C97D7A14069B541C1EFCC6925, SHA1: 70482C48F4D855AA19E7ECC16A74810A90CB3AC9, SHA256: DB8812515075963995091975892AA4D805AB7D49375FC31118913E8DB2416729, ED2K: EDB06EBC1BA020A7E9DF60B88831D995
Screenshots
screenshotscreenshotscreenshotscreenshotscreenshot
SubtitlesAll Attachments | Full Subtitles [0x539] [eng, ASS], Signs/Songs [0x539] [eng, ASS]
Additional Info
General
Unique ID                                : 215172254174537166148917955772136204546 (0xA1E0AB334E1D6B59866061845042A902)
Complete name                            : [Kosaka] One Punch Man - 06 - The Terrifying City (1080p AV1 10Bit BluRay OPUS) [A83B79A0].mkv
Format                                   : Matroska
Format version                           : Version 4
File size                                : 173 MiB
Duration                                 : 24 min 20 s
Overall bit rate                         : 997 kb/s
Movie name                               : One Punch Man - 06 - The Terrifying City
Encoded date                             : UTC 2023-01-12 01:52:55
Writing application                      : mkvmerge v73.0.0 ('25 or 6 to 4') 64-bit
Writing library                          : libebml v1.4.4 + libmatroska v1.7.1 / Lavf59.27.100
Attachments                              : Franchise-Bold-hinted_0.ttf / JennaSue_1.ttf / SubClearSans-Bold.ttf / Ubuntu-B.ttf / Ubuntu-BI.ttf / Brush Strokes_0.ttf / BrushStrokes-Bold.ttf / CentraleSansRnd-ExtraBold.ttf

Video
ID                                       : 5
Format                                   : AV1
Format/Info                              : AOMedia Video 1
Format profile                           : Main@L4.0
Codec ID                                 : V_AV1
Duration                                 : 24 min 20 s
Bit rate                                 : 859 kb/s
Width                                    : 1 920 pixels
Height                                   : 1 080 pixels
Display aspect ratio                     : 16:9
Frame rate mode                          : Constant
Frame rate                               : 23.976 (24000/1001) FPS
Color space                              : YUV
Chroma subsampling                       : 4:2:0
Bit depth                                : 10 bits
Bits/(Pixel*Frame)                       : 0.017
Stream size                              : 150 MiB (86%)
Default                                  : Yes
Forced                                   : No
Color range                              : Limited

Audio #1
ID                                       : 3
Format                                   : Opus
Codec ID                                 : A_OPUS
Duration                                 : 24 min 20 s
Bit rate                                 : 62.6 kb/s
Channel(s)                               : 2 channels
Channel layout                           : L R
Sampling rate                            : 48.0 kHz
Frame rate                               : 50.000 FPS (960 SPF)
Bit depth                                : 16 bits
Compression mode                         : Lossy
Stream size                              : 10.9 MiB (6%)
Title                                    : OPUS
Writing library                          : Lavc59.37.100 libopus
Language                                 : Japanese
Default                                  : Yes
Forced                                   : No

Audio #2
ID                                       : 4
Format                                   : Opus
Codec ID                                 : A_OPUS
Duration                                 : 24 min 20 s
Bit rate                                 : 62.6 kb/s
Channel(s)                               : 2 channels
Channel layout                           : L R
Sampling rate                            : 48.0 kHz
Frame rate                               : 50.000 FPS (960 SPF)
Bit depth                                : 16 bits
Compression mode                         : Lossy
Stream size                              : 10.9 MiB (6%)
Title                                    : OPUS
Writing library                          : Lavc59.37.100 libopus
Language                                 : English
Default                                  : No
Forced                                   : No

Text #1
ID                                       : 1
Format                                   : ASS
Codec ID                                 : S_TEXT/ASS
Codec ID/Info                            : Advanced Sub Station Alpha
Duration                                 : 24 min 17 s
Bit rate                                 : 472 b/s
Count of elements                        : 816
Compression mode                         : Lossless
Stream size                              : 84.1 KiB (0%)
Title                                    : Full Subtitles [0x539]
Language                                 : English
Default                                  : Yes
Forced                                   : No

Text #2
ID                                       : 2
Format                                   : ASS
Codec ID                                 : S_TEXT/ASS
Codec ID/Info                            : Advanced Sub Station Alpha
Duration                                 : 22 min 13 s
Bit rate                                 : 369 b/s
Count of elements                        : 449
Compression mode                         : Lossless
Stream size                              : 60.2 KiB (0%)
Title                                    : Signs/Songs [0x539]
Language                                 : English
Default                                  : No
Forced                                   : Yes

Menu
00:00:00.000                             : :Prologue
00:03:08.980                             : :OP
00:04:39.029                             : :Part A
00:10:09.067                             : :Part B
00:21:18.068                             : :ED
00:22:48.033                             : :Epilogue
00:24:00.064                             : :Preview

Other Files in this Torrent
Season 1/[Kosaka] One Punch Man - 06 - The Terrifying City (1080p AV1 10Bit BluRay OPUS) [A83B79A0].mkv
beta
Anime DDL+NZB mirror
Current Time: 15/07/2024 11:21



About/FAQs

Discord