OVAs/[Kosaka] One Punch Man OVA - 01 - The Shadow That Snuck Up Too Close (1080p AV1 10Bit BluRay OPUS) [Dual-Audio] [4F30A7F7].mkv


File Size63.13 MB (66,197,388 bytes)
DownloadAnonFiles | ClickNUpload | DownloadGG | KrakenFiles | MultiUp
  • BdUpload
  • DownAce
  • Fichier
  • FileCloud
  • Filerio
  • FilesCdn
  • IndiShare
  • Kbagi
  • Turbobit
  • UpToBox
  • Uppit
| ZippyShare
HashesCRC32: 4F30A7F7, MD5: 66E37AE2B1C0AA5E171E84162CB68878, SHA1: 18CFB9080AB52D7B0D70F4ABD2E76AA8073DAA85, SHA256: F7CAE6B1B47FDA4976D1C3A8DB779F3D698B6E8A88068F65CE7FEFF951AC85A6, ED2K: B8CAC2E9638CE6FFD0C8B63BA681D2F1
Screenshots
screenshotscreenshotscreenshotscreenshotscreenshot
SubtitlesAll Attachments | Full Subtitles [0x539] [eng, ASS], Signs/Songs [0x539] [eng, ASS]
Additional Info
General
Unique ID                                : 112076078100507260017423432653552377238 (0x54511146C8A690D3D4C00265786E5D96)
Complete name                            : [Kosaka] One Punch Man OVA - 01 - The Shadow That Snuck Up Too Close (1080p AV1 10Bit BluRay OPUS) [Dual-Audio] [4F30A7F7].mkv
Format                                   : Matroska
Format version                           : Version 4
File size                                : 63.1 MiB
Duration                                 : 12 min 29 s
Overall bit rate                         : 707 kb/s
Movie name                               : One Punch Man - OVA1 - The Shadow That Snuck Up Too Close
Encoded date                             : UTC 2023-01-12 06:43:20
Writing application                      : mkvmerge v73.0.0 ('25 or 6 to 4') 64-bit
Writing library                          : libebml v1.4.4 + libmatroska v1.7.1 / Lavf59.27.100
Attachments                              : RiiT.otf / Ubuntu-B.ttf / Ubuntu-BI.ttf / Brush Strokes_0.ttf / BRUSHTYP.TTF

Video
ID                                       : 5
Format                                   : AV1
Format/Info                              : AOMedia Video 1
Format profile                           : Main@L4.0
Codec ID                                 : V_AV1
Duration                                 : 12 min 28 s
Bit rate                                 : 530 kb/s
Width                                    : 1 920 pixels
Height                                   : 1 080 pixels
Display aspect ratio                     : 16:9
Frame rate mode                          : Constant
Frame rate                               : 23.976 (24000/1001) FPS
Color space                              : YUV
Chroma subsampling                       : 4:2:0
Bit depth                                : 10 bits
Bits/(Pixel*Frame)                       : 0.011
Stream size                              : 47.3 MiB (75%)
Default                                  : Yes
Forced                                   : No
Color range                              : Limited

Audio #1
ID                                       : 3
Format                                   : Opus
Codec ID                                 : A_OPUS
Duration                                 : 12 min 29 s
Bit rate                                 : 62.3 kb/s
Channel(s)                               : 2 channels
Channel layout                           : L R
Sampling rate                            : 48.0 kHz
Frame rate                               : 50.001 FPS (960 SPF)
Bit depth                                : 16 bits
Compression mode                         : Lossy
Stream size                              : 5.57 MiB (9%)
Title                                    : OPUS
Writing library                          : Lavc59.37.100 libopus
Language                                 : Japanese
Default                                  : Yes
Forced                                   : No

Audio #2
ID                                       : 4
Format                                   : Opus
Codec ID                                 : A_OPUS
Duration                                 : 12 min 29 s
Bit rate                                 : 62.2 kb/s
Channel(s)                               : 2 channels
Channel layout                           : L R
Sampling rate                            : 48.0 kHz
Frame rate                               : 50.001 FPS (960 SPF)
Bit depth                                : 16 bits
Compression mode                         : Lossy
Stream size                              : 5.56 MiB (9%)
Title                                    : OPUS
Writing library                          : Lavc59.37.100 libopus
Language                                 : English
Default                                  : No
Forced                                   : No

Text #1
ID                                       : 1
Format                                   : ASS
Codec ID                                 : S_TEXT/ASS
Codec ID/Info                            : Advanced Sub Station Alpha
Duration                                 : 12 min 25 s
Bit rate                                 : 219 b/s
Count of elements                        : 301
Compression mode                         : Lossless
Stream size                              : 20.0 KiB (0%)
Title                                    : Full Subtitles [0x539]
Language                                 : English
Default                                  : Yes
Forced                                   : No

Text #2
ID                                       : 2
Format                                   : ASS
Codec ID                                 : S_TEXT/ASS
Codec ID/Info                            : Advanced Sub Station Alpha
Duration                                 : 12 min 25 s
Bit rate                                 : 120 b/s
Count of elements                        : 137
Compression mode                         : Lossless
Stream size                              : 11.0 KiB (0%)
Title                                    : Signs/Songs [0x539]
Language                                 : English
Default                                  : No
Forced                                   : Yes

Menu
00:00:00.000                             : :Episode
00:10:55.071                             : :ED

Other Files in this Torrent
OVAs/[Kosaka] One Punch Man OVA - 01 - The Shadow That Snuck Up Too Close (1080p AV1 10Bit BluRay OPUS) [Dual-Audio] [4F30A7F7].mkv
beta
Anime DDL+NZB mirror
Current Time: 22/06/2024 18:24



About/FAQs

Discord