Season 1/[Kosaka] One Punch Man - 09 - Unyielding Justice (1080p AV1 10Bit BluRay OPUS) [D1BD724E].mkv


File Size229.5 MB (240,676,279 bytes)
DownloadAnonFiles | ClickNUpload | DownloadGG | KrakenFiles | MultiUp
  • BdUpload
  • DownAce
  • Fichier
  • FileCloud
  • Filerio
  • FilesCdn
  • IndiShare
  • Kbagi
  • Turbobit
  • UpToBox
  • Uppit
| ZippyShare
HashesCRC32: D1BD724E, MD5: 34F34CD6EF33FB12B38CDCF428F79BB4, SHA1: D11538246323AA35AB5387D6BEE54E5F6163C823, SHA256: 8B20EDE937AFE667E1E8943F278842F742665D3CFB522BDC011980EBAA6267C6, ED2K: E4BACA1B472355C66E992083EDF20D46
Screenshots
screenshotscreenshotscreenshotscreenshotscreenshot
SubtitlesAll Attachments | Full Subtitles [0x539] [eng, ASS], Signs/Songs [0x539] [eng, ASS]
Additional Info
General
Unique ID                                : 37213611125925018950504066775794479102 (0x1BFF14AF5974D2B51DFEABBD73A66FFE)
Complete name                            : [Kosaka] One Punch Man - 09 - Unyielding Justice (1080p AV1 10Bit BluRay OPUS) [D1BD724E].mkv
Format                                   : Matroska
Format version                           : Version 4
File size                                : 230 MiB
Duration                                 : 24 min 20 s
Overall bit rate                         : 1 319 kb/s
Movie name                               : One Punch Man - 09 - Unyielding Justice
Encoded date                             : UTC 2023-01-12 04:01:10
Writing application                      : mkvmerge v73.0.0 ('25 or 6 to 4') 64-bit
Writing library                          : libebml v1.4.4 + libmatroska v1.7.1 / Lavf59.27.100
Attachments                              : Franchise-Bold-hinted_0.ttf / GIL__.TTF / Grantham Bold.ttf / JennaSue_1.ttf / Jennifers Hand Writing.ttf / Note this_0.ttf / SubClearSans-Bold.ttf / SwaggerLight.ttf / Ubuntu-B.ttf / Ubuntu-BI.ttf / ufonts.com_swis721-md-bt-medium_0.ttf / Aller-Light_0.ttf / Aller-Regular.ttf / BeautifulEveryTime-Regular.ttf / bellgothicstd-black_0.otf / Blambot Pro Lite Bold.ttf / BOOKOS.TTF / Brush Strokes_0.ttf / Fennario.ttf

Video
ID                                       : 5
Format                                   : AV1
Format/Info                              : AOMedia Video 1
Format profile                           : Main@L4.0
Codec ID                                 : V_AV1
Duration                                 : 24 min 20 s
Bit rate                                 : 1 173 kb/s
Width                                    : 1 920 pixels
Height                                   : 1 080 pixels
Display aspect ratio                     : 16:9
Frame rate mode                          : Constant
Frame rate                               : 23.976 (24000/1001) FPS
Color space                              : YUV
Chroma subsampling                       : 4:2:0
Bit depth                                : 10 bits
Bits/(Pixel*Frame)                       : 0.024
Stream size                              : 204 MiB (89%)
Default                                  : Yes
Forced                                   : No
Color range                              : Limited

Audio #1
ID                                       : 3
Format                                   : Opus
Codec ID                                 : A_OPUS
Duration                                 : 24 min 20 s
Bit rate                                 : 60.2 kb/s
Channel(s)                               : 2 channels
Channel layout                           : L R
Sampling rate                            : 48.0 kHz
Frame rate                               : 50.000 FPS (960 SPF)
Bit depth                                : 16 bits
Compression mode                         : Lossy
Stream size                              : 10.5 MiB (5%)
Title                                    : OPUS
Writing library                          : Lavc59.37.100 libopus
Language                                 : Japanese
Default                                  : Yes
Forced                                   : No

Audio #2
ID                                       : 4
Format                                   : Opus
Codec ID                                 : A_OPUS
Duration                                 : 24 min 20 s
Bit rate                                 : 59.6 kb/s
Channel(s)                               : 2 channels
Channel layout                           : L R
Sampling rate                            : 48.0 kHz
Frame rate                               : 50.000 FPS (960 SPF)
Bit depth                                : 16 bits
Compression mode                         : Lossy
Stream size                              : 10.4 MiB (5%)
Title                                    : OPUS
Writing library                          : Lavc59.37.100 libopus
Language                                 : English
Default                                  : No
Forced                                   : No

Text #1
ID                                       : 1
Format                                   : ASS
Codec ID                                 : S_TEXT/ASS
Codec ID/Info                            : Advanced Sub Station Alpha
Duration                                 : 24 min 16 s
Bit rate                                 : 5 252 b/s
Count of elements                        : 4199
Compression mode                         : Lossless
Stream size                              : 934 KiB (0%)
Title                                    : Full Subtitles [0x539]
Language                                 : English
Default                                  : Yes
Forced                                   : No

Text #2
ID                                       : 2
Format                                   : ASS
Codec ID                                 : S_TEXT/ASS
Codec ID/Info                            : Advanced Sub Station Alpha
Duration                                 : 23 min 16 s
Bit rate                                 : 5 368 b/s
Count of elements                        : 3885
Compression mode                         : Lossless
Stream size                              : 915 KiB (0%)
Title                                    : Signs/Songs [0x539]
Language                                 : English
Default                                  : No
Forced                                   : Yes

Menu
00:00:00.000                             : :Prologue
00:01:53.030                             : :OP
00:03:22.994                             : :Part A
00:11:26.978                             : :Part B
00:22:01.028                             : :ED
00:23:30.993                             : :Epilogue
00:24:00.022                             : :Preview

Other Files in this Torrent
Season 1/[Kosaka] One Punch Man - 09 - Unyielding Justice (1080p AV1 10Bit BluRay OPUS) [D1BD724E].mkv
beta
Anime DDL+NZB mirror
Current Time: 26/05/2024 03:45



About/FAQs

Discord