Season 1/[Kosaka] One Punch Man - 04 - The Modern Ninja (1080p AV1 10Bit BluRay OPUS) [FDF71211].mkv


File Size189.3 MB (198,516,389 bytes)
DownloadAnonFiles | ClickNUpload | DownloadGG | KrakenFiles | MultiUp
  • BdUpload
  • DownAce
  • Fichier
  • FileCloud
  • Filerio
  • FilesCdn
  • IndiShare
  • Kbagi
  • Turbobit
  • UpToBox
  • Uppit
| ZippyShare
HashesCRC32: FDF71211, MD5: 12313BDEAB6A4355DE48EEDC3FF9CD4E, SHA1: 86B54C0CE4D326BA311FD24E9776BCD02973FA81, SHA256: 2332DA522D3D79A63F82C2C42F583494F587C70EE94F8D04AEFB67669A0FE463, ED2K: B0154D99654022E98D99027D1D087301
Screenshots
screenshotscreenshotscreenshotscreenshotscreenshot
SubtitlesAll Attachments | Full Subtitles [0x539] [eng, ASS], Signs/Songs [0x539] [eng, ASS]
Additional Info
General
Unique ID                                : 268244248573330009917737130656410397757 (0xC9CDF68BFF89BCD13F3F55C36F386C3D)
Complete name                            : [Kosaka] One Punch Man - 04 - The Modern Ninja (1080p AV1 10Bit BluRay OPUS) [FDF71211].mkv
Format                                   : Matroska
Format version                           : Version 4
File size                                : 189 MiB
Duration                                 : 24 min 20 s
Overall bit rate                         : 1 088 kb/s
Movie name                               : One Punch Man - 04 - The Modern Ninja
Encoded date                             : UTC 2023-01-12 00:32:52
Writing application                      : mkvmerge v73.0.0 ('25 or 6 to 4') 64-bit
Writing library                          : libebml v1.4.4 + libmatroska v1.7.1 / Lavf59.27.100
Attachments                              : CentraleSansRnd-ExtraBold.ttf / Franchise-Bold-hinted_0.ttf / JennaSue_1.ttf / RolandBecker.ttf / SWZ721H.ttf / SWZ721L.ttf / Ubuntu-B.ttf / Ubuntu-BI.ttf / ufonts.com_swis721-md-bt-medium_0.ttf / A-OTF-ShinMGoPro-Bold_0.ttf / APJFK-AnoHana.ttf / ARCENA_0.ttf / Brush Strokes_0.ttf / BertoltBrecht.ttf

Video
ID                                       : 5
Format                                   : AV1
Format/Info                              : AOMedia Video 1
Format profile                           : Main@L4.0
Codec ID                                 : V_AV1
Duration                                 : 24 min 20 s
Bit rate                                 : 950 kb/s
Width                                    : 1 920 pixels
Height                                   : 1 080 pixels
Display aspect ratio                     : 16:9
Frame rate mode                          : Constant
Frame rate                               : 23.976 (24000/1001) FPS
Color space                              : YUV
Chroma subsampling                       : 4:2:0
Bit depth                                : 10 bits
Bits/(Pixel*Frame)                       : 0.019
Stream size                              : 165 MiB (87%)
Default                                  : Yes
Forced                                   : No
Color range                              : Limited

Audio #1
ID                                       : 3
Format                                   : Opus
Codec ID                                 : A_OPUS
Duration                                 : 24 min 20 s
Bit rate                                 : 61.4 kb/s
Channel(s)                               : 2 channels
Channel layout                           : L R
Sampling rate                            : 48.0 kHz
Frame rate                               : 50.000 FPS (960 SPF)
Bit depth                                : 16 bits
Compression mode                         : Lossy
Stream size                              : 10.7 MiB (6%)
Title                                    : OPUS
Writing library                          : Lavc59.37.100 libopus
Language                                 : Japanese
Default                                  : Yes
Forced                                   : No

Audio #2
ID                                       : 4
Format                                   : Opus
Codec ID                                 : A_OPUS
Duration                                 : 24 min 20 s
Bit rate                                 : 62.1 kb/s
Channel(s)                               : 2 channels
Channel layout                           : L R
Sampling rate                            : 48.0 kHz
Frame rate                               : 50.000 FPS (960 SPF)
Bit depth                                : 16 bits
Compression mode                         : Lossy
Stream size                              : 10.8 MiB (6%)
Title                                    : OPUS
Writing library                          : Lavc59.37.100 libopus
Language                                 : English
Default                                  : No
Forced                                   : No

Text #1
ID                                       : 1
Format                                   : ASS
Codec ID                                 : S_TEXT/ASS
Codec ID/Info                            : Advanced Sub Station Alpha
Duration                                 : 24 min 18 s
Bit rate                                 : 904 b/s
Count of elements                        : 1125
Compression mode                         : Lossless
Stream size                              : 161 KiB (0%)
Title                                    : Full Subtitles [0x539]
Language                                 : English
Default                                  : Yes
Forced                                   : No

Text #2
ID                                       : 2
Format                                   : ASS
Codec ID                                 : S_TEXT/ASS
Codec ID/Info                            : Advanced Sub Station Alpha
Duration                                 : 23 min 5 s
Bit rate                                 : 827 b/s
Count of elements                        : 803
Compression mode                         : Lossless
Stream size                              : 140 KiB (0%)
Title                                    : Signs/Songs [0x539]
Language                                 : English
Default                                  : No
Forced                                   : Yes

Menu
00:00:00.000                             : :Prologue
00:01:04.982                             : :OP
00:02:35.030                             : :Part A
00:11:45.038                             : :Part B
00:22:10.079                             : :ED
00:23:40.044                             : :Epilogue
00:24:00.064                             : :Preview

Other Files in this Torrent
Season 1/[Kosaka] One Punch Man - 04 - The Modern Ninja (1080p AV1 10Bit BluRay OPUS) [FDF71211].mkv
beta
Anime DDL+NZB mirror
Current Time: 20/06/2024 21:12



About/FAQs

Discord