File Size277.4 MB (290,912,842 bytes)
DownloadClickNUpload | DailyUploads | DownloadGG | GoFile | KrakenFiles | MdiaLoad | MultiUp
  • BdUpload
  • DownAce
  • Fichier
  • FileCloud
  • Filerio
  • FilesCdn
  • IndiShare
  • Kbagi
  • Turbobit
  • UpToBox
  • Uppit
| Uppit
HashesCRC32: F79776C9, MD5: 6BF6D68783DCA2DF13897BEFDABC0630, SHA1: 6D05AA20AF154B0F9CBB3CEE1376C1F2FE15B919, SHA256: 8A8DFBD2C843D8174610679FF6B009F02A1B20FB8ED90E55292A717AA7806C92, ED2K: F5132219A33E2B19229E4AA26115E3F4
Screenshots
screenshot
SubtitlesAll Attachments | SIgns [eng, PGS], eng [PGS], eng [PGS]
Additional Info
General
Unique ID                                : 209069562617260924436262242143309023734 (0x9D495546BA0377A38F63F224D0E249F6)
Complete name                            : S00E24 - AkaKill! Theater #24 - Afterparty.mkv
Format                                   : Matroska
Format version                           : Version 4
File size                                : 277 MiB
Duration                                 : 1 min 26 s
Overall bit rate mode                    : Variable
Overall bit rate                         : 27.0 Mb/s
Frame rate                               : 23.976 FPS
Encoded date                             : 2017-05-18 17:13:03 UTC
Writing application                      : mkvmerge v7.1.0 ('Good Love') 64bit built on Jul 27 2014 13:06:55
Writing library                          : libebml v1.3.0 + libmatroska v1.4.1

Video
ID                                       : 1
Format                                   : AVC
Format/Info                              : Advanced Video Codec
Format profile                           : High@L4.1
Format settings                          : CABAC / 4 Ref Frames
Format settings, CABAC                   : Yes
Format settings, Reference frames        : 4 frames
Codec ID                                 : V_MPEG4/ISO/AVC
Duration                                 : 1 min 26 s
Bit rate mode                            : Variable
Bit rate                                 : 22.8 Mb/s
Maximum bit rate                         : 39.0 Mb/s
Width                                    : 1 920 pixels
Height                                   : 1 080 pixels
Display aspect ratio                     : 16:9
Frame rate mode                          : Constant
Frame rate                               : 23.976 (24000/1001) FPS
Color space                              : YUV
Chroma subsampling                       : 4:2:0
Bit depth                                : 8 bits
Scan type                                : Progressive
Bits/(Pixel*Frame)                       : 0.458
Time code of first frame                 : 02:14:07:0000000000
Stream size                              : 234 MiB (84%)
Title                                    : MPEG-4 AVC Video / 24990 kbps / 1080p / 23.976 fps / 16:9 / High Profile 4.1
Language                                 : Japanese
Default                                  : Yes
Forced                                   : No

Audio #1
ID                                       : 2
Format                                   : DTS XLL
Format/Info                              : Digital Theater Systems
Commercial name                          : DTS-HD Master Audio
Codec ID                                 : A_DTS
Duration                                 : 1 min 26 s
Bit rate mode                            : Variable
Bit rate                                 : 2 120 kb/s
Channel(s)                               : 2 channels
Channel layout                           : L R
Sampling rate                            : 48.0 kHz
Frame rate                               : 93.750 FPS (512 SPF)
Bit depth                                : 24 bits
Compression mode                         : Lossless
Delay relative to video                  : 2 ms
Stream size                              : 21.8 MiB (8%)
Title                                    : DTS-HD Master Audio / 2.0 / 48 kHz / 2119 kbps / 24-bit (DTS Core: 2.0 / 48 kHz / 1509 kbps / 24-bit)
Language                                 : English
Default                                  : Yes
Forced                                   : No

Audio #2
ID                                       : 3
Format                                   : DTS XLL
Format/Info                              : Digital Theater Systems
Commercial name                          : DTS-HD Master Audio
Codec ID                                 : A_DTS
Duration                                 : 1 min 26 s
Bit rate mode                            : Variable
Bit rate                                 : 2 120 kb/s
Channel(s)                               : 2 channels
Channel layout                           : L R
Sampling rate                            : 48.0 kHz
Frame rate                               : 93.750 FPS (512 SPF)
Bit depth                                : 24 bits
Compression mode                         : Lossless
Delay relative to video                  : 2 ms
Stream size                              : 21.8 MiB (8%)
Title                                    : DTS-HD Master Audio / 2.0 / 48 kHz / 2113 kbps / 24-bit (DTS Core: 2.0 / 48 kHz / 1509 kbps / 24-bit)
Language                                 : Japanese
Default                                  : No
Forced                                   : No

Text #1
ID                                       : 4
Format                                   : PGS
Muxing mode                              : zlib
Codec ID                                 : S_HDMV/PGS
Codec ID/Info                            : Picture based subtitle format used on BDs/HD-DVDs
Duration                                 : 31 s 532 ms
Bit rate                                 : 6 493 b/s
Frame rate                               : 0.190 FPS
Count of elements                        : 6
Stream size                              : 25.0 KiB (0%)
Title                                    : SIgns
Language                                 : English
Default                                  : Yes
Forced                                   : No

Text #2
ID                                       : 5
Format                                   : PGS
Muxing mode                              : zlib
Codec ID                                 : S_HDMV/PGS
Codec ID/Info                            : Picture based subtitle format used on BDs/HD-DVDs
Duration                                 : 51 s 719 ms
Bit rate                                 : 20.9 kb/s
Frame rate                               : 0.599 FPS
Count of elements                        : 31
Stream size                              : 132 KiB (0%)
Language                                 : English
Default                                  : No
Forced                                   : No

Text #3
ID                                       : 6
Format                                   : PGS
Muxing mode                              : zlib
Codec ID                                 : S_HDMV/PGS
Codec ID/Info                            : Picture based subtitle format used on BDs/HD-DVDs
Duration                                 : 31 s 532 ms
Bit rate                                 : 6 493 b/s
Frame rate                               : 0.190 FPS
Count of elements                        : 6
Stream size                              : 25.0 KiB (0%)
Language                                 : English
Default                                  : No
Forced                                   : No

Other Files in this Torrent
S00E24 - AkaKill! Theater #24 - Afterparty.mkv
beta
Anime DDL+NZB mirror
Current Time: 13/06/2024 04:25



About/FAQs

Discord