File Size248.4 MB (260,430,637 bytes)
DownloadClickNUpload | DailyUploads | DownloadGG | GoFile | KrakenFiles | MdiaLoad | MultiUp
  • BdUpload
  • DownAce
  • Fichier
  • FileCloud
  • Filerio
  • FilesCdn
  • IndiShare
  • Kbagi
  • Turbobit
  • UpToBox
  • Uppit
| Uppit
HashesCRC32: 9A382433, MD5: 255E6D1F2EB1B61D0EE9CFA8C7622BFF, SHA1: 9971D40DFD691BA9C982F6CEEC25CA4BC388B3B1, SHA256: 14F34823AE20B79FB97C882F77C1974BB3B67109FC21924B3147E67F09511D68, ED2K: FF4746BDA59857BF6675289CB3643BF7
Screenshots
screenshot
SubtitlesAll Attachments | Signs [eng, PGS], eng [PGS], eng [PGS]
Additional Info
General
Unique ID                                : 249349584265275384944872154290230722918 (0xBB96FBAC28E948B9B42156E00E490166)
Complete name                            : S00E12 - AkaKill! Theater #12 - Mail Order Part 2.mkv
Format                                   : Matroska
Format version                           : Version 4
File size                                : 248 MiB
Duration                                 : 1 min 5 s
Overall bit rate mode                    : Variable
Overall bit rate                         : 32.0 Mb/s
Frame rate                               : 23.976 FPS
Encoded date                             : 2017-05-18 15:45:09 UTC
Writing application                      : mkvmerge v7.1.0 ('Good Love') 64bit built on Jul 27 2014 13:06:55
Writing library                          : libebml v1.3.0 + libmatroska v1.4.1

Video
ID                                       : 1
Format                                   : AVC
Format/Info                              : Advanced Video Codec
Format profile                           : High@L4.1
Format settings                          : CABAC / 4 Ref Frames
Format settings, CABAC                   : Yes
Format settings, Reference frames        : 4 frames
Codec ID                                 : V_MPEG4/ISO/AVC
Duration                                 : 1 min 5 s
Bit rate mode                            : Variable
Bit rate                                 : 27.6 Mb/s
Maximum bit rate                         : 39.0 Mb/s
Width                                    : 1 920 pixels
Height                                   : 1 080 pixels
Display aspect ratio                     : 16:9
Frame rate mode                          : Constant
Frame rate                               : 23.976 (24000/1001) FPS
Color space                              : YUV
Chroma subsampling                       : 4:2:0
Bit depth                                : 8 bits
Scan type                                : Progressive
Bits/(Pixel*Frame)                       : 0.555
Time code of first frame                 : 02:13:32:0000000000
Stream size                              : 214 MiB (86%)
Title                                    : MPEG-4 AVC Video / 27996 kbps / 1080p / 23.976 fps / 16:9 / High Profile 4.1
Language                                 : Japanese
Default                                  : Yes
Forced                                   : No

Audio #1
ID                                       : 2
Format                                   : DTS XLL
Format/Info                              : Digital Theater Systems
Commercial name                          : DTS-HD Master Audio
Codec ID                                 : A_DTS
Duration                                 : 1 min 5 s
Bit rate mode                            : Variable
Bit rate                                 : 2 168 kb/s
Channel(s)                               : 2 channels
Channel layout                           : L R
Sampling rate                            : 48.0 kHz
Frame rate                               : 93.750 FPS (512 SPF)
Bit depth                                : 24 bits
Compression mode                         : Lossless
Delay relative to video                  : 3 ms
Stream size                              : 16.8 MiB (7%)
Title                                    : DTS-HD Master Audio / 2.0 / 48 kHz / 2166 kbps / 24-bit (DTS Core: 2.0 / 48 kHz / 1509 kbps / 24-bit)
Language                                 : English
Default                                  : Yes
Forced                                   : No

Audio #2
ID                                       : 3
Format                                   : DTS XLL
Format/Info                              : Digital Theater Systems
Commercial name                          : DTS-HD Master Audio
Codec ID                                 : A_DTS
Duration                                 : 1 min 5 s
Bit rate mode                            : Variable
Bit rate                                 : 2 217 kb/s
Channel(s)                               : 2 channels
Channel layout                           : L R
Sampling rate                            : 48.0 kHz
Frame rate                               : 93.750 FPS (512 SPF)
Bit depth                                : 24 bits
Compression mode                         : Lossless
Delay relative to video                  : 3 ms
Stream size                              : 17.2 MiB (7%)
Title                                    : DTS-HD Master Audio / 2.0 / 48 kHz / 2207 kbps / 24-bit (DTS Core: 2.0 / 48 kHz / 1509 kbps / 24-bit)
Language                                 : Japanese
Default                                  : No
Forced                                   : No

Text #1
ID                                       : 4
Format                                   : PGS
Muxing mode                              : zlib
Codec ID                                 : S_HDMV/PGS
Codec ID/Info                            : Picture based subtitle format used on BDs/HD-DVDs
Duration                                 : 1 min 4 s
Bit rate                                 : 3 841 b/s
Frame rate                               : 0.140 FPS
Count of elements                        : 9
Stream size                              : 30.0 KiB (0%)
Title                                    : Signs
Language                                 : English
Default                                  : Yes
Forced                                   : No

Text #2
ID                                       : 5
Format                                   : PGS
Muxing mode                              : zlib
Codec ID                                 : S_HDMV/PGS
Codec ID/Info                            : Picture based subtitle format used on BDs/HD-DVDs
Duration                                 : 1 min 4 s
Bit rate                                 : 25.8 kb/s
Frame rate                               : 0.609 FPS
Count of elements                        : 39
Stream size                              : 202 KiB (0%)
Language                                 : English
Default                                  : No
Forced                                   : No

Text #3
ID                                       : 6
Format                                   : PGS
Muxing mode                              : zlib
Codec ID                                 : S_HDMV/PGS
Codec ID/Info                            : Picture based subtitle format used on BDs/HD-DVDs
Duration                                 : 1 min 4 s
Bit rate                                 : 3 841 b/s
Frame rate                               : 0.140 FPS
Count of elements                        : 9
Stream size                              : 30.0 KiB (0%)
Language                                 : English
Default                                  : No
Forced                                   : No

Other Files in this Torrent
S00E12 - AkaKill! Theater #12 - Mail Order Part 2.mkv
beta
Anime DDL+NZB mirror
Current Time: 29/05/2024 20:21



About/FAQs

Discord