S00E03 - AkaKill! Theater #03 - Leone and Scheele's Must-See Imperial Secret Hot Spring Report ♥.mkv


File Size288.7 MB (302,732,016 bytes)
DownloadClickNUpload | DailyUploads | DownloadGG | GoFile | KrakenFiles | MdiaLoad | MultiUp
  • BdUpload
  • DownAce
  • Fichier
  • FileCloud
  • Filerio
  • FilesCdn
  • IndiShare
  • Kbagi
  • Turbobit
  • UpToBox
  • Uppit
| Uppit
HashesCRC32: 3F910931, MD5: 7ABD4B8005B2B54B0533444DC80E4C73, SHA1: B6FF3337F97D0F80ABE08BF226424E35291EB742, SHA256: 2D13797E633966C804415566A8DE90904B3D6F0735B1660E118D222D831BDEB8, ED2K: 2A1F641477FEDD5920DA7D9BADE61574
Screenshots
screenshot
SubtitlesAll Attachments | Signs [eng, PGS], eng [PGS], eng [PGS]
Additional Info
General
Unique ID                                : 176290552734509486469854462602781079360 (0x84A0535031636290928EE68463933740)
Complete name                            : S00E03 - AkaKill! Theater #03 - Leone and Scheele's Must-See Imperial Secret Hot Spring Report ♥.mkv
Format                                   : Matroska
Format version                           : Version 4
File size                                : 289 MiB
Duration                                 : 1 min 1 s
Overall bit rate mode                    : Variable
Overall bit rate                         : 39.7 Mb/s
Frame rate                               : 23.976 FPS
Encoded date                             : 2017-05-18 15:06:52 UTC
Writing application                      : mkvmerge v7.1.0 ('Good Love') 64bit built on Jul 27 2014 13:06:55
Writing library                          : libebml v1.3.0 + libmatroska v1.4.1

Video
ID                                       : 1
Format                                   : AVC
Format/Info                              : Advanced Video Codec
Format profile                           : High@L4.1
Format settings                          : CABAC / 4 Ref Frames
Format settings, CABAC                   : Yes
Format settings, Reference frames        : 4 frames
Format settings, GOP                     : M=3, N=12
Codec ID                                 : V_MPEG4/ISO/AVC
Duration                                 : 1 min 1 s
Bit rate mode                            : Variable
Bit rate                                 : 35.2 Mb/s
Maximum bit rate                         : 39.0 Mb/s
Width                                    : 1 920 pixels
Height                                   : 1 080 pixels
Display aspect ratio                     : 16:9
Frame rate mode                          : Constant
Frame rate                               : 23.976 (24000/1001) FPS
Color space                              : YUV
Chroma subsampling                       : 4:2:0
Bit depth                                : 8 bits
Scan type                                : Progressive
Bits/(Pixel*Frame)                       : 0.709
Time code of first frame                 : 02:13:32:0000000000
Stream size                              : 256 MiB (89%)
Title                                    : MPEG-4 AVC Video / 35992 kbps / 1080p / 23.976 fps / 16:9 / High Profile 4.1
Language                                 : Japanese
Default                                  : Yes
Forced                                   : No

Audio #1
ID                                       : 2
Format                                   : DTS XLL
Format/Info                              : Digital Theater Systems
Commercial name                          : DTS-HD Master Audio
Codec ID                                 : A_DTS
Duration                                 : 1 min 1 s
Bit rate mode                            : Variable
Bit rate                                 : 2 167 kb/s
Channel(s)                               : 2 channels
Channel layout                           : L R
Sampling rate                            : 48.0 kHz
Frame rate                               : 93.750 FPS (512 SPF)
Bit depth                                : 24 bits
Compression mode                         : Lossless
Delay relative to video                  : 3 ms
Stream size                              : 15.8 MiB (5%)
Title                                    : DTS-HD Master Audio / 2.0 / 48 kHz / 2167 kbps / 24-bit (DTS Core: 2.0 / 48 kHz / 1509 kbps / 24-bit)
Language                                 : English
Default                                  : Yes
Forced                                   : No

Audio #2
ID                                       : 3
Format                                   : DTS XLL
Format/Info                              : Digital Theater Systems
Commercial name                          : DTS-HD Master Audio
Codec ID                                 : A_DTS
Duration                                 : 1 min 1 s
Bit rate mode                            : Variable
Bit rate                                 : 2 224 kb/s
Channel(s)                               : 2 channels
Channel layout                           : L R
Sampling rate                            : 48.0 kHz
Frame rate                               : 93.750 FPS (512 SPF)
Bit depth                                : 24 bits
Compression mode                         : Lossless
Delay relative to video                  : 3 ms
Stream size                              : 16.2 MiB (6%)
Title                                    : DTS-HD Master Audio / 2.0 / 48 kHz / 2179 kbps / 24-bit (DTS Core: 2.0 / 48 kHz / 1509 kbps / 24-bit)
Language                                 : Japanese
Default                                  : No
Forced                                   : No

Text #1
ID                                       : 4
Format                                   : PGS
Muxing mode                              : zlib
Codec ID                                 : S_HDMV/PGS
Codec ID/Info                            : Picture based subtitle format used on BDs/HD-DVDs
Duration                                 : 1 min 0 s
Bit rate                                 : 6 022 b/s
Frame rate                               : 0.117 FPS
Count of elements                        : 7
Stream size                              : 44.2 KiB (0%)
Title                                    : Signs
Language                                 : English
Default                                  : Yes
Forced                                   : No

Text #2
ID                                       : 5
Format                                   : PGS
Muxing mode                              : zlib
Codec ID                                 : S_HDMV/PGS
Codec ID/Info                            : Picture based subtitle format used on BDs/HD-DVDs
Duration                                 : 1 min 0 s
Bit rate                                 : 21.1 kb/s
Frame rate                               : 0.450 FPS
Count of elements                        : 27
Stream size                              : 155 KiB (0%)
Language                                 : English
Default                                  : No
Forced                                   : No

Text #3
ID                                       : 6
Format                                   : PGS
Muxing mode                              : zlib
Codec ID                                 : S_HDMV/PGS
Codec ID/Info                            : Picture based subtitle format used on BDs/HD-DVDs
Duration                                 : 1 min 0 s
Bit rate                                 : 6 022 b/s
Frame rate                               : 0.117 FPS
Count of elements                        : 7
Stream size                              : 44.2 KiB (0%)
Language                                 : English
Default                                  : No
Forced                                   : No

Other Files in this Torrent
S00E03 - AkaKill! Theater #03 - Leone and Scheele's Must-See Imperial Secret Hot Spring Report ♥.mkv
beta
Anime DDL+NZB mirror
Current Time: 20/05/2024 21:30



About/FAQs

Discord