File Size221.6 MB (232,373,784 bytes)
DownloadClickNUpload | DailyUploads | DownloadGG | GoFile | KrakenFiles | MdiaLoad | MultiUp
  • BdUpload
  • DownAce
  • Fichier
  • FileCloud
  • Filerio
  • FilesCdn
  • IndiShare
  • Kbagi
  • Turbobit
  • UpToBox
  • Uppit
| Uppit
HashesCRC32: 6EC48B45, MD5: 6899FDB2136A96C6A06D2B17FAF8EA0C, SHA1: B31E4DE89659F13ACDBD8FD352416F5664847838, SHA256: 585E463378B8E2BEDA5F077759790E19192452EAD9EF8C60DBB080C7FF1784DC, ED2K: 3E1C1D58A422E3D859BFEF040F875B39
Screenshots
screenshot
SubtitlesAll Attachments | Signs [eng, PGS], eng [PGS], eng [PGS]
Additional Info
General
Unique ID                                : 217281340364587621892873785130647580665 (0xA376DD2D8FF27C95BBA06B0BB7D46FF9)
Complete name                            : S00E14 - AkaKill! Theater #14 - Majikoi.mkv
Format                                   : Matroska
Format version                           : Version 4
File size                                : 222 MiB
Duration                                 : 1 min 4 s
Overall bit rate mode                    : Variable
Overall bit rate                         : 29.0 Mb/s
Frame rate                               : 23.976 FPS
Encoded date                             : 2017-05-18 17:10:06 UTC
Writing application                      : mkvmerge v7.1.0 ('Good Love') 64bit built on Jul 27 2014 13:06:55
Writing library                          : libebml v1.3.0 + libmatroska v1.4.1

Video
ID                                       : 1
Format                                   : AVC
Format/Info                              : Advanced Video Codec
Format profile                           : High@L4.1
Format settings                          : CABAC / 4 Ref Frames
Format settings, CABAC                   : Yes
Format settings, Reference frames        : 4 frames
Codec ID                                 : V_MPEG4/ISO/AVC
Duration                                 : 1 min 4 s
Bit rate mode                            : Variable
Bit rate                                 : 24.7 Mb/s
Maximum bit rate                         : 39.0 Mb/s
Width                                    : 1 920 pixels
Height                                   : 1 080 pixels
Display aspect ratio                     : 16:9
Frame rate mode                          : Constant
Frame rate                               : 23.976 (24000/1001) FPS
Color space                              : YUV
Chroma subsampling                       : 4:2:0
Bit depth                                : 8 bits
Scan type                                : Progressive
Bits/(Pixel*Frame)                       : 0.496
Time code of first frame                 : 02:12:31:0000000000
Stream size                              : 188 MiB (85%)
Title                                    : MPEG-4 AVC Video / 24979 kbps / 1080p / 23.976 fps / 16:9 / High Profile 4.1
Language                                 : Japanese
Default                                  : Yes
Forced                                   : No

Audio #1
ID                                       : 2
Format                                   : DTS XLL
Format/Info                              : Digital Theater Systems
Commercial name                          : DTS-HD Master Audio
Codec ID                                 : A_DTS
Duration                                 : 1 min 4 s
Bit rate mode                            : Variable
Bit rate                                 : 2 116 kb/s
Channel(s)                               : 2 channels
Channel layout                           : L R
Sampling rate                            : 48.0 kHz
Frame rate                               : 93.750 FPS (512 SPF)
Bit depth                                : 24 bits
Compression mode                         : Lossless
Delay relative to video                  : 2 ms
Stream size                              : 16.2 MiB (7%)
Title                                    : DTS-HD Master Audio / 2.0 / 48 kHz / 2115 kbps / 24-bit (DTS Core: 2.0 / 48 kHz / 1509 kbps / 24-bit)
Language                                 : English
Default                                  : Yes
Forced                                   : No

Audio #2
ID                                       : 3
Format                                   : DTS XLL
Format/Info                              : Digital Theater Systems
Commercial name                          : DTS-HD Master Audio
Codec ID                                 : A_DTS
Duration                                 : 1 min 4 s
Bit rate mode                            : Variable
Bit rate                                 : 2 144 kb/s
Channel(s)                               : 2 channels
Channel layout                           : L R
Sampling rate                            : 48.0 kHz
Frame rate                               : 93.750 FPS (512 SPF)
Bit depth                                : 24 bits
Compression mode                         : Lossless
Delay relative to video                  : 2 ms
Stream size                              : 16.4 MiB (7%)
Title                                    : DTS-HD Master Audio / 2.0 / 48 kHz / 2135 kbps / 24-bit (DTS Core: 2.0 / 48 kHz / 1509 kbps / 24-bit)
Language                                 : Japanese
Default                                  : No
Forced                                   : No

Text #1
ID                                       : 4
Format                                   : PGS
Muxing mode                              : zlib
Codec ID                                 : S_HDMV/PGS
Codec ID/Info                            : Picture based subtitle format used on BDs/HD-DVDs
Duration                                 : 1 min 2 s
Bit rate                                 : 32.5 kb/s
Frame rate                               : 0.769 FPS
Count of elements                        : 48
Stream size                              : 248 KiB (0%)
Title                                    : Signs
Language                                 : English
Default                                  : Yes
Forced                                   : No

Text #2
ID                                       : 5
Format                                   : PGS
Muxing mode                              : zlib
Codec ID                                 : S_HDMV/PGS
Codec ID/Info                            : Picture based subtitle format used on BDs/HD-DVDs
Duration                                 : 1 min 2 s
Bit rate                                 : 34.9 kb/s
Frame rate                               : 0.865 FPS
Count of elements                        : 54
Stream size                              : 266 KiB (0%)
Language                                 : English
Default                                  : No
Forced                                   : No

Text #3
ID                                       : 6
Format                                   : PGS
Muxing mode                              : zlib
Codec ID                                 : S_HDMV/PGS
Codec ID/Info                            : Picture based subtitle format used on BDs/HD-DVDs
Duration                                 : 1 min 2 s
Bit rate                                 : 32.5 kb/s
Frame rate                               : 0.769 FPS
Count of elements                        : 48
Stream size                              : 248 KiB (0%)
Language                                 : English
Default                                  : No
Forced                                   : No

Other Files in this Torrent
S00E14 - AkaKill! Theater #14 - Majikoi.mkv
beta
Anime DDL+NZB mirror
Current Time: 29/05/2024 20:52



About/FAQs

Discord