File Size217.6 MB (228,122,155 bytes)
DownloadClickNUpload | DailyUploads | DownloadGG | GoFile | KrakenFiles | MdiaLoad | MultiUp
  • BdUpload
  • DownAce
  • Fichier
  • FileCloud
  • Filerio
  • FilesCdn
  • IndiShare
  • Kbagi
  • Turbobit
  • UpToBox
  • Uppit
| Uppit
HashesCRC32: 34829FCB, MD5: C64004529181847E4ED222EDD4F7F30D, SHA1: 1AF570864BCAA7BA99AB3F5761D46D926E6E0598, SHA256: 67A3A91FEB4DC7D39F80456CE4F3FDCFB4C33CD153A243223151660AA35AABC7, ED2K: 99541DE4ABCD2E6436D37A136B75BE67
Screenshots
screenshot
SubtitlesAll Attachments | Signs [eng, PGS], eng [PGS], eng [PGS]
Additional Info
General
Unique ID                                : 217384547468355814945872898178230389913 (0xA38ABDAE59E548D3AFD17C909A660C99)
Complete name                            : S00E18 - AkaKill! Theater #18 - Lightning Speed! Susanoo!.mkv
Format                                   : Matroska
Format version                           : Version 4
File size                                : 218 MiB
Duration                                 : 1 min 3 s
Overall bit rate mode                    : Variable
Overall bit rate                         : 28.9 Mb/s
Frame rate                               : 23.976 FPS
Encoded date                             : 2017-05-18 17:11:23 UTC
Writing application                      : mkvmerge v7.1.0 ('Good Love') 64bit built on Jul 27 2014 13:06:55
Writing library                          : libebml v1.3.0 + libmatroska v1.4.1

Video
ID                                       : 1
Format                                   : AVC
Format/Info                              : Advanced Video Codec
Format profile                           : High@L4.1
Format settings                          : CABAC / 4 Ref Frames
Format settings, CABAC                   : Yes
Format settings, Reference frames        : 4 frames
Codec ID                                 : V_MPEG4/ISO/AVC
Duration                                 : 1 min 3 s
Bit rate mode                            : Variable
Bit rate                                 : 24.6 Mb/s
Maximum bit rate                         : 39.0 Mb/s
Width                                    : 1 920 pixels
Height                                   : 1 080 pixels
Display aspect ratio                     : 16:9
Frame rate mode                          : Constant
Frame rate                               : 23.976 (24000/1001) FPS
Color space                              : YUV
Chroma subsampling                       : 4:2:0
Bit depth                                : 8 bits
Scan type                                : Progressive
Bits/(Pixel*Frame)                       : 0.496
Time code of first frame                 : 02:13:38:0000000000
Stream size                              : 185 MiB (85%)
Title                                    : MPEG-4 AVC Video / 24979 kbps / 1080p / 23.976 fps / 16:9 / High Profile 4.1
Language                                 : Japanese
Default                                  : Yes
Forced                                   : No

Audio #1
ID                                       : 2
Format                                   : DTS XLL
Format/Info                              : Digital Theater Systems
Commercial name                          : DTS-HD Master Audio
Codec ID                                 : A_DTS
Duration                                 : 1 min 3 s
Bit rate mode                            : Variable
Bit rate                                 : 2 132 kb/s
Channel(s)                               : 2 channels
Channel layout                           : L R
Sampling rate                            : 48.0 kHz
Frame rate                               : 93.750 FPS (512 SPF)
Bit depth                                : 24 bits
Compression mode                         : Lossless
Delay relative to video                  : 2 ms
Stream size                              : 16.0 MiB (7%)
Title                                    : DTS-HD Master Audio / 2.0 / 48 kHz / 2131 kbps / 24-bit (DTS Core: 2.0 / 48 kHz / 1509 kbps / 24-bit)
Language                                 : English
Default                                  : Yes
Forced                                   : No

Audio #2
ID                                       : 3
Format                                   : DTS XLL
Format/Info                              : Digital Theater Systems
Commercial name                          : DTS-HD Master Audio
Codec ID                                 : A_DTS
Duration                                 : 1 min 3 s
Bit rate mode                            : Variable
Bit rate                                 : 2 128 kb/s
Channel(s)                               : 2 channels
Channel layout                           : L R
Sampling rate                            : 48.0 kHz
Frame rate                               : 93.750 FPS (512 SPF)
Bit depth                                : 24 bits
Compression mode                         : Lossless
Delay relative to video                  : 2 ms
Stream size                              : 16.0 MiB (7%)
Title                                    : DTS-HD Master Audio / 2.0 / 48 kHz / 2119 kbps / 24-bit (DTS Core: 2.0 / 48 kHz / 1509 kbps / 24-bit)
Language                                 : Japanese
Default                                  : No
Forced                                   : No

Text #1
ID                                       : 4
Format                                   : PGS
Muxing mode                              : zlib
Codec ID                                 : S_HDMV/PGS
Codec ID/Info                            : Picture based subtitle format used on BDs/HD-DVDs
Duration                                 : 1 min 2 s
Bit rate                                 : 4 609 b/s
Frame rate                               : 0.113 FPS
Count of elements                        : 7
Stream size                              : 34.9 KiB (0%)
Title                                    : Signs
Language                                 : English
Default                                  : Yes
Forced                                   : No

Text #2
ID                                       : 5
Format                                   : PGS
Muxing mode                              : zlib
Codec ID                                 : S_HDMV/PGS
Codec ID/Info                            : Picture based subtitle format used on BDs/HD-DVDs
Duration                                 : 1 min 2 s
Bit rate                                 : 18.0 kb/s
Frame rate                               : 0.516 FPS
Count of elements                        : 32
Stream size                              : 136 KiB (0%)
Language                                 : English
Default                                  : No
Forced                                   : No

Text #3
ID                                       : 6
Format                                   : PGS
Muxing mode                              : zlib
Codec ID                                 : S_HDMV/PGS
Codec ID/Info                            : Picture based subtitle format used on BDs/HD-DVDs
Duration                                 : 1 min 2 s
Bit rate                                 : 4 609 b/s
Frame rate                               : 0.113 FPS
Count of elements                        : 7
Stream size                              : 34.9 KiB (0%)
Language                                 : English
Default                                  : No
Forced                                   : No

Other Files in this Torrent
S00E18 - AkaKill! Theater #18 - Lightning Speed! Susanoo!.mkv
beta
Anime DDL+NZB mirror
Current Time: 13/06/2024 04:57



About/FAQs

Discord