File Size256.1 MB (268,504,122 bytes)
DownloadClickNUpload | DailyUploads | DownloadGG | GoFile | KrakenFiles | MdiaLoad | MultiUp
  • BdUpload
  • DownAce
  • Fichier
  • FileCloud
  • Filerio
  • FilesCdn
  • IndiShare
  • Kbagi
  • Turbobit
  • UpToBox
  • Uppit
| Uppit
HashesCRC32: B7C5BA80, MD5: DC2514821177C5E8DCEA59C80D04DE74, SHA1: 7DD9602B0A6BBF6C2EB8492691F2B53102B8FA9A, SHA256: 753AA209A3498DA316C8E420FDB40471BD907E7C34ED4A73D6131A90348FA50A, ED2K: 30638225CD14124A6687C47CDB8736ED
Screenshots
screenshot
SubtitlesAll Attachments | Signs [eng, PGS], eng [PGS], eng [PGS]
Additional Info
General
Unique ID                                : 252699037295061883434820887192132597196 (0xBE1C1074F1E9ACA287D1A455EE2335CC)
Complete name                            : S00E04 - AkaKill! Theater #04 - Mail Order Part 1.mkv
Format                                   : Matroska
Format version                           : Version 4
File size                                : 256 MiB
Duration                                 : 1 min 7 s
Overall bit rate mode                    : Variable
Overall bit rate                         : 32.0 Mb/s
Frame rate                               : 23.976 FPS
Encoded date                             : 2017-05-18 15:12:56 UTC
Writing application                      : mkvmerge v7.1.0 ('Good Love') 64bit built on Jul 27 2014 13:06:55
Writing library                          : libebml v1.3.0 + libmatroska v1.4.1

Video
ID                                       : 6
Format                                   : AVC
Format/Info                              : Advanced Video Codec
Format profile                           : High@L4.1
Format settings                          : CABAC / 4 Ref Frames
Format settings, CABAC                   : Yes
Format settings, Reference frames        : 4 frames
Format settings, GOP                     : M=3, N=12
Codec ID                                 : V_MPEG4/ISO/AVC
Duration                                 : 1 min 7 s
Bit rate mode                            : Variable
Bit rate                                 : 27.6 Mb/s
Maximum bit rate                         : 39.0 Mb/s
Width                                    : 1 920 pixels
Height                                   : 1 080 pixels
Display aspect ratio                     : 16:9
Frame rate mode                          : Constant
Frame rate                               : 23.976 (24000/1001) FPS
Color space                              : YUV
Chroma subsampling                       : 4:2:0
Bit depth                                : 8 bits
Scan type                                : Progressive
Bits/(Pixel*Frame)                       : 0.555
Time code of first frame                 : 02:11:30:0000000000
Stream size                              : 221 MiB (86%)
Title                                    : MPEG-4 AVC Video / 27983 kbps / 1080i / 29.970 fps / 16:9 / High Profile 4.1
Language                                 : Japanese
Default                                  : Yes
Forced                                   : No

Audio #1
ID                                       : 1
Format                                   : DTS XLL
Format/Info                              : Digital Theater Systems
Commercial name                          : DTS-HD Master Audio
Codec ID                                 : A_DTS
Duration                                 : 1 min 7 s
Bit rate mode                            : Variable
Bit rate                                 : 2 150 kb/s
Channel(s)                               : 2 channels
Channel layout                           : L R
Sampling rate                            : 48.0 kHz
Frame rate                               : 93.750 FPS (512 SPF)
Bit depth                                : 24 bits
Compression mode                         : Lossless
Delay relative to video                  : 3 ms
Stream size                              : 17.2 MiB (7%)
Title                                    : DTS-HD Master Audio / 2.0 / 48 kHz / 2129 kbps / 24-bit (DTS Core: 2.0 / 48 kHz / 1509 kbps / 24-bit)
Language                                 : English
Default                                  : Yes
Forced                                   : No

Audio #2
ID                                       : 2
Format                                   : DTS XLL
Format/Info                              : Digital Theater Systems
Commercial name                          : DTS-HD Master Audio
Codec ID                                 : A_DTS
Duration                                 : 1 min 7 s
Bit rate mode                            : Variable
Bit rate                                 : 2 198 kb/s
Channel(s)                               : 2 channels
Channel layout                           : L R
Sampling rate                            : 48.0 kHz
Frame rate                               : 93.750 FPS (512 SPF)
Bit depth                                : 24 bits
Compression mode                         : Lossless
Delay relative to video                  : 3 ms
Stream size                              : 17.6 MiB (7%)
Title                                    : DTS-HD Master Audio / 2.0 / 48 kHz / 2138 kbps / 24-bit (DTS Core: 2.0 / 48 kHz / 1509 kbps / 24-bit)
Language                                 : Japanese
Default                                  : No
Forced                                   : No

Text #1
ID                                       : 3
Format                                   : PGS
Muxing mode                              : zlib
Codec ID                                 : S_HDMV/PGS
Codec ID/Info                            : Picture based subtitle format used on BDs/HD-DVDs
Duration                                 : 1 min 6 s
Bit rate                                 : 23.2 kb/s
Frame rate                               : 0.515 FPS
Count of elements                        : 34
Stream size                              : 187 KiB (0%)
Title                                    : Signs
Language                                 : English
Default                                  : Yes
Forced                                   : No

Text #2
ID                                       : 4
Format                                   : PGS
Muxing mode                              : zlib
Codec ID                                 : S_HDMV/PGS
Codec ID/Info                            : Picture based subtitle format used on BDs/HD-DVDs
Duration                                 : 1 min 6 s
Bit rate                                 : 46.6 kb/s
Frame rate                               : 0.878 FPS
Count of elements                        : 58
Stream size                              : 376 KiB (0%)
Language                                 : English
Default                                  : No
Forced                                   : No

Text #3
ID                                       : 5
Format                                   : PGS
Muxing mode                              : zlib
Codec ID                                 : S_HDMV/PGS
Codec ID/Info                            : Picture based subtitle format used on BDs/HD-DVDs
Duration                                 : 1 min 6 s
Bit rate                                 : 23.2 kb/s
Frame rate                               : 0.515 FPS
Count of elements                        : 34
Stream size                              : 187 KiB (0%)
Language                                 : English
Default                                  : No
Forced                                   : No

Other Files in this Torrent
S00E04 - AkaKill! Theater #04 - Mail Order Part 1.mkv
beta
Anime DDL+NZB mirror
Current Time: 29/05/2024 21:10



About/FAQs

Discord