File Size261.4 MB (274,067,767 bytes)
DownloadClickNUpload | DailyUploads | DownloadGG | GoFile | KrakenFiles | MdiaLoad | MultiUp
  • BdUpload
  • DownAce
  • Fichier
  • FileCloud
  • Filerio
  • FilesCdn
  • IndiShare
  • Kbagi
  • Turbobit
  • UpToBox
  • Uppit
| Uppit
HashesCRC32: 0EB97BFA, MD5: CB85531A0F73BEB47CC2CEC5548F18EE, SHA1: 3A94A9519C0B49112F74EF73883D45DBC858378A, SHA256: CC9A24E90950F12A567397765F3FBDEFAC64AEA809561B5CC366DB927C6912F8, ED2K: 68661E024C14249E6FEFC3DF8901D1FF
Screenshots
screenshot
SubtitlesAll Attachments | Signs [eng, PGS], eng [PGS], eng [PGS]
Additional Info
General
Unique ID                                : 194465746971541519394557623327093017939 (0x924CBD930C15CCECA6953D35D521CD53)
Complete name                            : S00E23 - AkaKill! Theater #23 - Departure.mkv
Format                                   : Matroska
Format version                           : Version 4
File size                                : 261 MiB
Duration                                 : 1 min 16 s
Overall bit rate mode                    : Variable
Overall bit rate                         : 28.8 Mb/s
Frame rate                               : 23.976 FPS
Encoded date                             : 2017-05-18 17:12:46 UTC
Writing application                      : mkvmerge v7.1.0 ('Good Love') 64bit built on Jul 27 2014 13:06:55
Writing library                          : libebml v1.3.0 + libmatroska v1.4.1

Video
ID                                       : 1
Format                                   : AVC
Format/Info                              : Advanced Video Codec
Format profile                           : High@L4.1
Format settings                          : CABAC / 4 Ref Frames
Format settings, CABAC                   : Yes
Format settings, Reference frames        : 4 frames
Codec ID                                 : V_MPEG4/ISO/AVC
Duration                                 : 1 min 16 s
Bit rate mode                            : Variable
Bit rate                                 : 24.7 Mb/s
Maximum bit rate                         : 39.0 Mb/s
Width                                    : 1 920 pixels
Height                                   : 1 080 pixels
Display aspect ratio                     : 16:9
Frame rate mode                          : Constant
Frame rate                               : 23.976 (24000/1001) FPS
Color space                              : YUV
Chroma subsampling                       : 4:2:0
Bit depth                                : 8 bits
Scan type                                : Progressive
Bits/(Pixel*Frame)                       : 0.496
Time code of first frame                 : 02:12:51:0000000000
Stream size                              : 224 MiB (86%)
Title                                    : MPEG-4 AVC Video / 24994 kbps / 1080p / 23.976 fps / 16:9 / High Profile 4.1
Language                                 : Japanese
Default                                  : Yes
Forced                                   : No

Audio #1
ID                                       : 2
Format                                   : DTS XLL
Format/Info                              : Digital Theater Systems
Commercial name                          : DTS-HD Master Audio
Codec ID                                 : A_DTS
Duration                                 : 1 min 16 s
Bit rate mode                            : Variable
Bit rate                                 : 2 084 kb/s
Channel(s)                               : 2 channels
Channel layout                           : L R
Sampling rate                            : 48.0 kHz
Frame rate                               : 93.750 FPS (512 SPF)
Bit depth                                : 24 bits
Compression mode                         : Lossless
Delay relative to video                  : 2 ms
Stream size                              : 18.9 MiB (7%)
Title                                    : DTS-HD Master Audio / 2.0 / 48 kHz / 2083 kbps / 24-bit (DTS Core: 2.0 / 48 kHz / 1509 kbps / 24-bit)
Language                                 : English
Default                                  : Yes
Forced                                   : No

Audio #2
ID                                       : 3
Format                                   : DTS XLL
Format/Info                              : Digital Theater Systems
Commercial name                          : DTS-HD Master Audio
Codec ID                                 : A_DTS
Duration                                 : 1 min 16 s
Bit rate mode                            : Variable
Bit rate                                 : 2 058 kb/s
Channel(s)                               : 2 channels
Channel layout                           : L R
Sampling rate                            : 48.0 kHz
Frame rate                               : 93.750 FPS (512 SPF)
Bit depth                                : 24 bits
Compression mode                         : Lossless
Delay relative to video                  : 2 ms
Stream size                              : 18.7 MiB (7%)
Title                                    : DTS-HD Master Audio / 2.0 / 48 kHz / 2051 kbps / 24-bit (DTS Core: 2.0 / 48 kHz / 1509 kbps / 24-bit)
Language                                 : Japanese
Default                                  : No
Forced                                   : No

Text #1
ID                                       : 4
Format                                   : PGS
Muxing mode                              : zlib
Codec ID                                 : S_HDMV/PGS
Codec ID/Info                            : Picture based subtitle format used on BDs/HD-DVDs
Duration                                 : 1 min 14 s
Bit rate                                 : 3 530 b/s
Frame rate                               : 0.121 FPS
Count of elements                        : 9
Stream size                              : 32.1 KiB (0%)
Title                                    : Signs
Language                                 : English
Default                                  : Yes
Forced                                   : No

Text #2
ID                                       : 5
Format                                   : PGS
Muxing mode                              : zlib
Codec ID                                 : S_HDMV/PGS
Codec ID/Info                            : Picture based subtitle format used on BDs/HD-DVDs
Duration                                 : 1 min 14 s
Bit rate                                 : 9 310 b/s
Frame rate                               : 0.376 FPS
Count of elements                        : 28
Stream size                              : 84.7 KiB (0%)
Language                                 : English
Default                                  : No
Forced                                   : No

Text #3
ID                                       : 6
Format                                   : PGS
Muxing mode                              : zlib
Codec ID                                 : S_HDMV/PGS
Codec ID/Info                            : Picture based subtitle format used on BDs/HD-DVDs
Duration                                 : 1 min 14 s
Bit rate                                 : 3 530 b/s
Frame rate                               : 0.121 FPS
Count of elements                        : 9
Stream size                              : 32.1 KiB (0%)
Language                                 : English
Default                                  : No
Forced                                   : No

Other Files in this Torrent
S00E23 - AkaKill! Theater #23 - Departure.mkv
beta
Anime DDL+NZB mirror
Current Time: 13/06/2024 05:01



About/FAQs

Discord