File Size223.2 MB (234,021,599 bytes)
DownloadClickNUpload | DailyUploads | DownloadGG | GoFile | KrakenFiles | MdiaLoad | MultiUp
  • BdUpload
  • DownAce
  • Fichier
  • FileCloud
  • Filerio
  • FilesCdn
  • IndiShare
  • Kbagi
  • Turbobit
  • UpToBox
  • Uppit
| Uppit
HashesCRC32: 9EB80FED, MD5: 112932D6ECED4F4D27E98F340BA3E6BE, SHA1: 3859B397D83925DBF09BD12D1D57B5E9466ECAD3, SHA256: 5955E08C67E2EACD027BEE7F65907ACE4531DB9469AC44F9843CAF7741263790, ED2K: 7238D4CCDD1F072D0A08C63046EE9F4A
Screenshots
screenshot
SubtitlesAll Attachments | Signs [eng, PGS], eng [PGS], eng [PGS]
Additional Info
General
Unique ID                                : 241172072126137772816128217198365755608 (0xB5700D321A6D9D49B985860514EFC8D8)
Complete name                            : S00E17 - AkaKill! Theater #17 - Haunted House.mkv
Format                                   : Matroska
Format version                           : Version 4
File size                                : 223 MiB
Duration                                 : 1 min 7 s
Overall bit rate mode                    : Variable
Overall bit rate                         : 27.9 Mb/s
Frame rate                               : 23.976 FPS
Encoded date                             : 2017-05-18 17:11:07 UTC
Writing application                      : mkvmerge v7.1.0 ('Good Love') 64bit built on Jul 27 2014 13:06:55
Writing library                          : libebml v1.3.0 + libmatroska v1.4.1

Video
ID                                       : 1
Format                                   : AVC
Format/Info                              : Advanced Video Codec
Format profile                           : High@L4.1
Format settings                          : CABAC / 4 Ref Frames
Format settings, CABAC                   : Yes
Format settings, Reference frames        : 4 frames
Codec ID                                 : V_MPEG4/ISO/AVC
Duration                                 : 1 min 7 s
Bit rate mode                            : Variable
Bit rate                                 : 23.5 Mb/s
Maximum bit rate                         : 39.0 Mb/s
Width                                    : 1 920 pixels
Height                                   : 1 080 pixels
Display aspect ratio                     : 16:9
Frame rate mode                          : Constant
Frame rate                               : 23.976 (24000/1001) FPS
Color space                              : YUV
Chroma subsampling                       : 4:2:0
Bit depth                                : 8 bits
Scan type                                : Progressive
Bits/(Pixel*Frame)                       : 0.473
Time code of first frame                 : 02:12:31:0000000000
Stream size                              : 188 MiB (84%)
Title                                    : MPEG-4 AVC Video / 24975 kbps / 1080p / 23.976 fps / 16:9 / High Profile 4.1
Language                                 : Japanese
Default                                  : Yes
Forced                                   : No

Audio #1
ID                                       : 2
Format                                   : DTS XLL
Format/Info                              : Digital Theater Systems
Commercial name                          : DTS-HD Master Audio
Codec ID                                 : A_DTS
Duration                                 : 1 min 7 s
Bit rate mode                            : Variable
Bit rate                                 : 2 144 kb/s
Channel(s)                               : 2 channels
Channel layout                           : L R
Sampling rate                            : 48.0 kHz
Frame rate                               : 93.750 FPS (512 SPF)
Bit depth                                : 24 bits
Compression mode                         : Lossless
Delay relative to video                  : 2 ms
Stream size                              : 17.1 MiB (8%)
Title                                    : DTS-HD Master Audio / 2.0 / 48 kHz / 2142 kbps / 24-bit (DTS Core: 2.0 / 48 kHz / 1509 kbps / 24-bit)
Language                                 : English
Default                                  : Yes
Forced                                   : No

Audio #2
ID                                       : 3
Format                                   : DTS XLL
Format/Info                              : Digital Theater Systems
Commercial name                          : DTS-HD Master Audio
Codec ID                                 : A_DTS
Duration                                 : 1 min 7 s
Bit rate mode                            : Variable
Bit rate                                 : 2 191 kb/s
Channel(s)                               : 2 channels
Channel layout                           : L R
Sampling rate                            : 48.0 kHz
Frame rate                               : 93.750 FPS (512 SPF)
Bit depth                                : 24 bits
Compression mode                         : Lossless
Delay relative to video                  : 2 ms
Stream size                              : 17.5 MiB (8%)
Title                                    : DTS-HD Master Audio / 2.0 / 48 kHz / 2181 kbps / 24-bit (DTS Core: 2.0 / 48 kHz / 1509 kbps / 24-bit)
Language                                 : Japanese
Default                                  : No
Forced                                   : No

Text #1
ID                                       : 4
Format                                   : PGS
Muxing mode                              : zlib
Codec ID                                 : S_HDMV/PGS
Codec ID/Info                            : Picture based subtitle format used on BDs/HD-DVDs
Duration                                 : 1 min 4 s
Bit rate                                 : 8 588 b/s
Frame rate                               : 0.186 FPS
Count of elements                        : 12
Stream size                              : 67.6 KiB (0%)
Title                                    : Signs
Language                                 : English
Default                                  : Yes
Forced                                   : No

Text #2
ID                                       : 5
Format                                   : PGS
Muxing mode                              : zlib
Codec ID                                 : S_HDMV/PGS
Codec ID/Info                            : Picture based subtitle format used on BDs/HD-DVDs
Duration                                 : 1 min 4 s
Bit rate                                 : 20.5 kb/s
Frame rate                               : 0.559 FPS
Count of elements                        : 36
Stream size                              : 162 KiB (0%)
Language                                 : English
Default                                  : No
Forced                                   : No

Text #3
ID                                       : 6
Format                                   : PGS
Muxing mode                              : zlib
Codec ID                                 : S_HDMV/PGS
Codec ID/Info                            : Picture based subtitle format used on BDs/HD-DVDs
Duration                                 : 1 min 4 s
Bit rate                                 : 8 588 b/s
Frame rate                               : 0.186 FPS
Count of elements                        : 12
Stream size                              : 67.6 KiB (0%)
Language                                 : English
Default                                  : No
Forced                                   : No

Other Files in this Torrent
S00E17 - AkaKill! Theater #17 - Haunted House.mkv
beta
Anime DDL+NZB mirror
Current Time: 20/05/2024 21:34



About/FAQs

Discord