S00E15 - AkaKill! Theater #15 - Seryu's Fun Crime-Prevention Class.mkv


File Size211.3 MB (221,580,309 bytes)
DownloadClickNUpload | DailyUploads | DownloadGG | GoFile | KrakenFiles | MdiaLoad | MultiUp
  • BdUpload
  • DownAce
  • Fichier
  • FileCloud
  • Filerio
  • FilesCdn
  • IndiShare
  • Kbagi
  • Turbobit
  • UpToBox
  • Uppit
| Uppit
HashesCRC32: E31EA5C2, MD5: 496B8E55C05C6E0EE3026F6E64BC59F4, SHA1: 9AE86238F598A029ED2903BDCF8E91976FC48111, SHA256: C78B2482C3307EE60B877D176DDB8FF14672C64E7E1F0DD105D69F54801E6549, ED2K: B5E59A341FA3A5590F44844DC201DCD8
Screenshots
screenshot
SubtitlesAll Attachments | Signs [eng, PGS], eng [PGS], eng [PGS]
Additional Info
General
Unique ID                                : 222978391713274458416656480617565689624 (0xA7C0137EE81351099AFBAE6942AE9718)
Complete name                            : S00E15 - AkaKill! Theater #15 - Seryu's Fun Crime-Prevention Class.mkv
Format                                   : Matroska
Format version                           : Version 4
File size                                : 211 MiB
Duration                                 : 1 min 1 s
Overall bit rate mode                    : Variable
Overall bit rate                         : 29.0 Mb/s
Frame rate                               : 23.976 FPS
Encoded date                             : 2017-05-18 17:10:28 UTC
Writing application                      : mkvmerge v7.1.0 ('Good Love') 64bit built on Jul 27 2014 13:06:55
Writing library                          : libebml v1.3.0 + libmatroska v1.4.1

Video
ID                                       : 1
Format                                   : AVC
Format/Info                              : Advanced Video Codec
Format profile                           : High@L4.1
Format settings                          : CABAC / 4 Ref Frames
Format settings, CABAC                   : Yes
Format settings, Reference frames        : 4 frames
Codec ID                                 : V_MPEG4/ISO/AVC
Duration                                 : 1 min 1 s
Bit rate mode                            : Variable
Bit rate                                 : 24.6 Mb/s
Maximum bit rate                         : 39.0 Mb/s
Width                                    : 1 920 pixels
Height                                   : 1 080 pixels
Display aspect ratio                     : 16:9
Frame rate mode                          : Constant
Frame rate                               : 23.976 (24000/1001) FPS
Color space                              : YUV
Chroma subsampling                       : 4:2:0
Bit depth                                : 8 bits
Scan type                                : Progressive
Bits/(Pixel*Frame)                       : 0.496
Time code of first frame                 : 02:13:35:0000000000
Stream size                              : 179 MiB (85%)
Title                                    : MPEG-4 AVC Video / 24971 kbps / 1080p / 23.976 fps / 16:9 / High Profile 4.1
Language                                 : English
Default                                  : Yes
Forced                                   : No

Audio #1
ID                                       : 2
Format                                   : DTS XLL
Format/Info                              : Digital Theater Systems
Commercial name                          : DTS-HD Master Audio
Codec ID                                 : A_DTS
Duration                                 : 1 min 1 s
Bit rate mode                            : Variable
Bit rate                                 : 2 169 kb/s
Channel(s)                               : 2 channels
Channel layout                           : L R
Sampling rate                            : 48.0 kHz
Frame rate                               : 93.750 FPS (512 SPF)
Bit depth                                : 24 bits
Compression mode                         : Lossless
Delay relative to video                  : 2 ms
Stream size                              : 15.8 MiB (7%)
Title                                    : DTS-HD Master Audio / 2.0 / 48 kHz / 2167 kbps / 24-bit (DTS Core: 2.0 / 48 kHz / 1509 kbps / 24-bit)
Language                                 : English
Default                                  : Yes
Forced                                   : No

Audio #2
ID                                       : 3
Format                                   : DTS XLL
Format/Info                              : Digital Theater Systems
Commercial name                          : DTS-HD Master Audio
Codec ID                                 : A_DTS
Duration                                 : 1 min 1 s
Bit rate mode                            : Variable
Bit rate                                 : 2 189 kb/s
Channel(s)                               : 2 channels
Channel layout                           : L R
Sampling rate                            : 48.0 kHz
Frame rate                               : 93.750 FPS (512 SPF)
Bit depth                                : 24 bits
Compression mode                         : Lossless
Delay relative to video                  : 2 ms
Stream size                              : 15.9 MiB (8%)
Title                                    : DTS-HD Master Audio / 2.0 / 48 kHz / 2179 kbps / 24-bit (DTS Core: 2.0 / 48 kHz / 1509 kbps / 24-bit)
Language                                 : Japanese
Default                                  : No
Forced                                   : No

Text #1
ID                                       : 4
Format                                   : PGS
Muxing mode                              : zlib
Codec ID                                 : S_HDMV/PGS
Codec ID/Info                            : Picture based subtitle format used on BDs/HD-DVDs
Duration                                 : 55 s 722 ms
Bit rate                                 : 4 417 b/s
Frame rate                               : 0.126 FPS
Count of elements                        : 7
Stream size                              : 30.0 KiB (0%)
Title                                    : Signs
Language                                 : English
Default                                  : Yes
Forced                                   : No

Text #2
ID                                       : 5
Format                                   : PGS
Muxing mode                              : zlib
Codec ID                                 : S_HDMV/PGS
Codec ID/Info                            : Picture based subtitle format used on BDs/HD-DVDs
Duration                                 : 59 s 476 ms
Bit rate                                 : 21.7 kb/s
Frame rate                               : 0.521 FPS
Count of elements                        : 31
Stream size                              : 157 KiB (0%)
Language                                 : English
Default                                  : No
Forced                                   : No

Text #3
ID                                       : 6
Format                                   : PGS
Muxing mode                              : zlib
Codec ID                                 : S_HDMV/PGS
Codec ID/Info                            : Picture based subtitle format used on BDs/HD-DVDs
Duration                                 : 55 s 722 ms
Bit rate                                 : 4 417 b/s
Frame rate                               : 0.126 FPS
Count of elements                        : 7
Stream size                              : 30.0 KiB (0%)
Language                                 : English
Default                                  : No
Forced                                   : No

Other Files in this Torrent
S00E15 - AkaKill! Theater #15 - Seryu's Fun Crime-Prevention Class.mkv
beta
Anime DDL+NZB mirror
Current Time: 20/05/2024 21:40



About/FAQs

Discord