File Size241.8 MB (253,578,346 bytes)
DownloadClickNUpload | DailyUploads | DownloadGG | GoFile | KrakenFiles | MdiaLoad | MultiUp
  • BdUpload
  • DownAce
  • Fichier
  • FileCloud
  • Filerio
  • FilesCdn
  • IndiShare
  • Kbagi
  • Turbobit
  • UpToBox
  • Uppit
| Uppit
HashesCRC32: F02DCCE9, MD5: 28F8BBB8695CAC4658827638E9E00169, SHA1: 798ADA1AEF688E6FA028F65D4DED8F1FD30B799A, SHA256: BC31E2FF445D96DD34E4991D1125BC787796480C3E405971062DF22A7E3C6BDA, ED2K: 79FF9CAEA853AF3F7AD0EA1A41D770B6
Screenshots
screenshot
SubtitlesAll Attachments | Signs [eng, PGS], eng [PGS], eng [PGS]
Additional Info
General
Unique ID                                : 196239416494769496255482958358019894186 (0x93A2563BC71827A9BD43EAFABEB0EBAA)
Complete name                            : S00E19 - AkaKill! Theater #19 - Rahkasha Apperas!.mkv
Format                                   : Matroska
Format version                           : Version 4
File size                                : 242 MiB
Duration                                 : 1 min 10 s
Overall bit rate mode                    : Variable
Overall bit rate                         : 29.0 Mb/s
Frame rate                               : 23.976 FPS
Encoded date                             : 2017-05-18 17:11:40 UTC
Writing application                      : mkvmerge v7.1.0 ('Good Love') 64bit built on Jul 27 2014 13:06:55
Writing library                          : libebml v1.3.0 + libmatroska v1.4.1

Video
ID                                       : 1
Format                                   : AVC
Format/Info                              : Advanced Video Codec
Format profile                           : High@L4.1
Format settings                          : CABAC / 4 Ref Frames
Format settings, CABAC                   : Yes
Format settings, Reference frames        : 4 frames
Codec ID                                 : V_MPEG4/ISO/AVC
Duration                                 : 1 min 10 s
Bit rate mode                            : Variable
Bit rate                                 : 24.6 Mb/s
Maximum bit rate                         : 39.0 Mb/s
Width                                    : 1 920 pixels
Height                                   : 1 080 pixels
Display aspect ratio                     : 16:9
Frame rate mode                          : Constant
Frame rate                               : 23.976 (24000/1001) FPS
Color space                              : YUV
Chroma subsampling                       : 4:2:0
Bit depth                                : 8 bits
Scan type                                : Progressive
Bits/(Pixel*Frame)                       : 0.495
Time code of first frame                 : 02:11:30:0000000000
Stream size                              : 206 MiB (85%)
Title                                    : MPEG-4 AVC Video / 24974 kbps / 1080p / 23.976 fps / 16:9 / High Profile 4.1
Language                                 : Japanese
Default                                  : Yes
Forced                                   : No

Audio #1
ID                                       : 2
Format                                   : DTS XLL
Format/Info                              : Digital Theater Systems
Commercial name                          : DTS-HD Master Audio
Codec ID                                 : A_DTS
Duration                                 : 1 min 10 s
Bit rate mode                            : Variable
Bit rate                                 : 2 130 kb/s
Channel(s)                               : 2 channels
Channel layout                           : L R
Sampling rate                            : 48.0 kHz
Frame rate                               : 93.750 FPS (512 SPF)
Bit depth                                : 24 bits
Compression mode                         : Lossless
Delay relative to video                  : 2 ms
Stream size                              : 17.8 MiB (7%)
Title                                    : DTS-HD Master Audio / 2.0 / 48 kHz / 2129 kbps / 24-bit (DTS Core: 2.0 / 48 kHz / 1509 kbps / 24-bit)
Language                                 : English
Default                                  : Yes
Forced                                   : No

Audio #2
ID                                       : 3
Format                                   : DTS XLL
Format/Info                              : Digital Theater Systems
Commercial name                          : DTS-HD Master Audio
Codec ID                                 : A_DTS
Duration                                 : 1 min 10 s
Bit rate mode                            : Variable
Bit rate                                 : 2 164 kb/s
Channel(s)                               : 2 channels
Channel layout                           : L R
Sampling rate                            : 48.0 kHz
Frame rate                               : 93.750 FPS (512 SPF)
Bit depth                                : 24 bits
Compression mode                         : Lossless
Delay relative to video                  : 2 ms
Stream size                              : 18.1 MiB (7%)
Title                                    : DTS-HD Master Audio / 2.0 / 48 kHz / 2155 kbps / 24-bit (DTS Core: 2.0 / 48 kHz / 1509 kbps / 24-bit)
Language                                 : Japanese
Default                                  : No
Forced                                   : No

Text #1
ID                                       : 4
Format                                   : PGS
Muxing mode                              : zlib
Codec ID                                 : S_HDMV/PGS
Codec ID/Info                            : Picture based subtitle format used on BDs/HD-DVDs
Duration                                 : 1 min 9 s
Bit rate                                 : 4 958 b/s
Frame rate                               : 0.145 FPS
Count of elements                        : 10
Stream size                              : 41.8 KiB (0%)
Title                                    : Signs
Language                                 : English
Default                                  : Yes
Forced                                   : No

Text #2
ID                                       : 5
Format                                   : PGS
Muxing mode                              : zlib
Codec ID                                 : S_HDMV/PGS
Codec ID/Info                            : Picture based subtitle format used on BDs/HD-DVDs
Duration                                 : 1 min 9 s
Bit rate                                 : 21.6 kb/s
Frame rate                               : 0.594 FPS
Count of elements                        : 41
Stream size                              : 182 KiB (0%)
Language                                 : English
Default                                  : No
Forced                                   : No

Text #3
ID                                       : 6
Format                                   : PGS
Muxing mode                              : zlib
Codec ID                                 : S_HDMV/PGS
Codec ID/Info                            : Picture based subtitle format used on BDs/HD-DVDs
Duration                                 : 1 min 9 s
Bit rate                                 : 4 958 b/s
Frame rate                               : 0.145 FPS
Count of elements                        : 10
Stream size                              : 41.8 KiB (0%)
Language                                 : English
Default                                  : No
Forced                                   : No

Other Files in this Torrent
S00E19 - AkaKill! Theater #19 - Rahkasha Apperas!.mkv
beta
Anime DDL+NZB mirror
Current Time: 20/05/2024 20:49



About/FAQs

Discord