File Size232.6 MB (243,874,045 bytes)
DownloadClickNUpload | DailyUploads | DownloadGG | GoFile | KrakenFiles | MdiaLoad | MultiUp
  • BdUpload
  • DownAce
  • Fichier
  • FileCloud
  • Filerio
  • FilesCdn
  • IndiShare
  • Kbagi
  • Turbobit
  • UpToBox
  • Uppit
| Uppit
HashesCRC32: 1B3EC151, MD5: B65410068B40E6878F03E98061C53D97, SHA1: B8E3CB26B1356AB7C99E3BE13C10B6EEDAFC6FEB, SHA256: ADB73F29196A693FB0AF72319B5B7D05701E294A567FE0C4B8AB9BCBD9624C24, ED2K: 117FA6612294200FB36C2CD93E5DA1FD
Screenshots
screenshot
SubtitlesAll Attachments | eng [PGS], eng [PGS], eng [PGS]
Additional Info
General
Unique ID                                : 222005295472715812772167273823499859454 (0xA704AA259B80F7B992C8180915FE35FE)
Complete name                            : S00E11 - AkaKill! Theater #11 - Girl's Bar.mkv
Format                                   : Matroska
Format version                           : Version 4
File size                                : 233 MiB
Duration                                 : 1 min 1 s
Overall bit rate mode                    : Variable
Overall bit rate                         : 31.9 Mb/s
Frame rate                               : 23.976 FPS
Encoded date                             : 2017-05-18 15:47:33 UTC
Writing application                      : mkvmerge v7.1.0 ('Good Love') 64bit built on Jul 27 2014 13:06:55
Writing library                          : libebml v1.3.0 + libmatroska v1.4.1

Video
ID                                       : 1
Format                                   : AVC
Format/Info                              : Advanced Video Codec
Format profile                           : High@L4.1
Format settings                          : CABAC / 4 Ref Frames
Format settings, CABAC                   : Yes
Format settings, Reference frames        : 4 frames
Codec ID                                 : V_MPEG4/ISO/AVC
Duration                                 : 1 min 1 s
Bit rate mode                            : Variable
Bit rate                                 : 27.6 Mb/s
Maximum bit rate                         : 39.0 Mb/s
Width                                    : 1 920 pixels
Height                                   : 1 080 pixels
Display aspect ratio                     : 16:9
Frame rate mode                          : Constant
Frame rate                               : 23.976 (24000/1001) FPS
Color space                              : YUV
Chroma subsampling                       : 4:2:0
Bit depth                                : 8 bits
Scan type                                : Progressive
Bits/(Pixel*Frame)                       : 0.554
Time code of first frame                 : 02:12:31:0000000000
Stream size                              : 201 MiB (86%)
Title                                    : MPEG-4 AVC Video / 27985 kbps / 1080p / 23.976 fps / 16:9 / High Profile 4.1
Language                                 : Japanese
Default                                  : Yes
Forced                                   : No

Audio #1
ID                                       : 2
Format                                   : DTS XLL
Format/Info                              : Digital Theater Systems
Commercial name                          : DTS-HD Master Audio
Codec ID                                 : A_DTS
Duration                                 : 1 min 1 s
Bit rate mode                            : Variable
Bit rate                                 : 2 160 kb/s
Channel(s)                               : 2 channels
Channel layout                           : L R
Sampling rate                            : 48.0 kHz
Frame rate                               : 93.750 FPS (512 SPF)
Bit depth                                : 24 bits
Compression mode                         : Lossless
Delay relative to video                  : 3 ms
Stream size                              : 15.7 MiB (7%)
Title                                    : DTS-HD Master Audio / 2.0 / 48 kHz / 2158 kbps / 24-bit (DTS Core: 2.0 / 48 kHz / 1509 kbps / 24-bit)
Language                                 : English
Default                                  : Yes
Forced                                   : No

Audio #2
ID                                       : 3
Format                                   : DTS XLL
Format/Info                              : Digital Theater Systems
Commercial name                          : DTS-HD Master Audio
Codec ID                                 : A_DTS
Duration                                 : 1 min 1 s
Bit rate mode                            : Variable
Bit rate                                 : 2 208 kb/s
Channel(s)                               : 2 channels
Channel layout                           : L R
Sampling rate                            : 48.0 kHz
Frame rate                               : 93.750 FPS (512 SPF)
Bit depth                                : 24 bits
Compression mode                         : Lossless
Delay relative to video                  : 3 ms
Stream size                              : 16.1 MiB (7%)
Title                                    : DTS-HD Master Audio / 2.0 / 48 kHz / 2198 kbps / 24-bit (DTS Core: 2.0 / 48 kHz / 1509 kbps / 24-bit)
Language                                 : Japanese
Default                                  : No
Forced                                   : No

Text #1
ID                                       : 4
Format                                   : PGS
Muxing mode                              : zlib
Codec ID                                 : S_HDMV/PGS
Codec ID/Info                            : Picture based subtitle format used on BDs/HD-DVDs
Duration                                 : 57 s 641 ms
Bit rate                                 : 19.5 kb/s
Frame rate                               : 0.520 FPS
Count of elements                        : 30
Stream size                              : 137 KiB (0%)
Language                                 : English
Default                                  : No
Forced                                   : No

Text #2
ID                                       : 5
Format                                   : PGS
Muxing mode                              : zlib
Codec ID                                 : S_HDMV/PGS
Codec ID/Info                            : Picture based subtitle format used on BDs/HD-DVDs
Duration                                 : 50 s 676 ms
Bit rate                                 : 1 907 b/s
Frame rate                               : 0.079 FPS
Count of elements                        : 4
Stream size                              : 11.8 KiB (0%)
Language                                 : English
Default                                  : No
Forced                                   : No

Text #3
ID                                       : 6
Format                                   : PGS
Muxing mode                              : zlib
Codec ID                                 : S_HDMV/PGS
Codec ID/Info                            : Picture based subtitle format used on BDs/HD-DVDs
Duration                                 : 50 s 676 ms
Bit rate                                 : 1 907 b/s
Frame rate                               : 0.079 FPS
Count of elements                        : 4
Stream size                              : 11.8 KiB (0%)
Language                                 : English
Default                                  : No
Forced                                   : No

Other Files in this Torrent
S00E11 - AkaKill! Theater #11 - Girl's Bar.mkv
beta
Anime DDL+NZB mirror
Current Time: 13/06/2024 03:30



About/FAQs

Discord