S00E06 - AkaKill! Theater #06 - Esdeath's Fun Torture Classroom.mkv


File Size232.6 MB (243,856,775 bytes)
DownloadClickNUpload | DailyUploads | DownloadGG | GoFile | KrakenFiles | MdiaLoad | MultiUp
  • BdUpload
  • DownAce
  • Fichier
  • FileCloud
  • Filerio
  • FilesCdn
  • IndiShare
  • Kbagi
  • Turbobit
  • UpToBox
  • Uppit
| Uppit
HashesCRC32: D28A6686, MD5: EB8FCF757D3528DE46F0824C7AC5BB9D, SHA1: 5DED0683EABF91318255CF5576A386B4E2002C9C, SHA256: E9B93538CBD03AF3A637C5B6787B651D96A44C471E932449D6263A8E98143873, ED2K: 8DE939C6F243F0995D156B73249ABC1D
Screenshots
screenshot
SubtitlesAll Attachments | Signs [eng, PGS], eng [PGS], eng [PGS]
Additional Info
General
Unique ID                                : 195988416870973991267845027542886033251 (0x9371FEFF217668DCA73D350476D0A763)
Complete name                            : S00E06 - AkaKill! Theater #06 - Esdeath's Fun Torture Classroom.mkv
Format                                   : Matroska
Format version                           : Version 4
File size                                : 233 MiB
Duration                                 : 1 min 1 s
Overall bit rate mode                    : Variable
Overall bit rate                         : 31.9 Mb/s
Frame rate                               : 23.976 FPS
Encoded date                             : 2017-05-18 15:19:17 UTC
Writing application                      : mkvmerge v7.1.0 ('Good Love') 64bit built on Jul 27 2014 13:06:55
Writing library                          : libebml v1.3.0 + libmatroska v1.4.1

Video
ID                                       : 1
Format                                   : AVC
Format/Info                              : Advanced Video Codec
Format profile                           : High@L4.1
Format settings                          : CABAC / 4 Ref Frames
Format settings, CABAC                   : Yes
Format settings, Reference frames        : 4 frames
Format settings, GOP                     : M=3, N=12
Codec ID                                 : V_MPEG4/ISO/AVC
Duration                                 : 1 min 1 s
Bit rate mode                            : Variable
Bit rate                                 : 27.6 Mb/s
Maximum bit rate                         : 39.0 Mb/s
Width                                    : 1 920 pixels
Height                                   : 1 080 pixels
Display aspect ratio                     : 16:9
Frame rate mode                          : Constant
Frame rate                               : 23.976 (24000/1001) FPS
Color space                              : YUV
Chroma subsampling                       : 4:2:0
Bit depth                                : 8 bits
Scan type                                : Progressive
Bits/(Pixel*Frame)                       : 0.554
Time code of first frame                 : 02:13:38:0000000000
Stream size                              : 201 MiB (86%)
Title                                    : MPEG-4 AVC Video / 27978 kbps / 1080p / 23.976 fps / 16:9 / High Profile 4.1
Language                                 : Japanese
Default                                  : Yes
Forced                                   : No

Audio #1
ID                                       : 2
Format                                   : DTS XLL
Format/Info                              : Digital Theater Systems
Commercial name                          : DTS-HD Master Audio
Codec ID                                 : A_DTS
Duration                                 : 1 min 1 s
Bit rate mode                            : Variable
Bit rate                                 : 2 155 kb/s
Channel(s)                               : 2 channels
Channel layout                           : L R
Sampling rate                            : 48.0 kHz
Frame rate                               : 93.750 FPS (512 SPF)
Bit depth                                : 24 bits
Compression mode                         : Lossless
Delay relative to video                  : 3 ms
Stream size                              : 15.7 MiB (7%)
Title                                    : DTS-HD Master Audio / 2.0 / 48 kHz / 2131 kbps / 24-bit (DTS Core: 2.0 / 48 kHz / 1509 kbps / 24-bit)
Language                                 : English
Default                                  : Yes
Forced                                   : No

Audio #2
ID                                       : 3
Format                                   : DTS XLL
Format/Info                              : Digital Theater Systems
Commercial name                          : DTS-HD Master Audio
Codec ID                                 : A_DTS
Duration                                 : 1 min 1 s
Bit rate mode                            : Variable
Bit rate                                 : 2 200 kb/s
Channel(s)                               : 2 channels
Channel layout                           : L R
Sampling rate                            : 48.0 kHz
Frame rate                               : 93.750 FPS (512 SPF)
Bit depth                                : 24 bits
Compression mode                         : Lossless
Delay relative to video                  : 3 ms
Stream size                              : 16.0 MiB (7%)
Title                                    : DTS-HD Master Audio / 2.0 / 48 kHz / 2119 kbps / 24-bit (DTS Core: 2.0 / 48 kHz / 1509 kbps / 24-bit)
Language                                 : Japanese
Default                                  : No
Forced                                   : No

Text #1
ID                                       : 4
Format                                   : PGS
Muxing mode                              : zlib
Codec ID                                 : S_HDMV/PGS
Codec ID/Info                            : Picture based subtitle format used on BDs/HD-DVDs
Duration                                 : 56 s 473 ms
Bit rate                                 : 2 084 b/s
Frame rate                               : 0.071 FPS
Count of elements                        : 4
Stream size                              : 14.4 KiB (0%)
Title                                    : Signs
Language                                 : English
Default                                  : Yes
Forced                                   : No

Text #2
ID                                       : 5
Format                                   : PGS
Muxing mode                              : zlib
Codec ID                                 : S_HDMV/PGS
Codec ID/Info                            : Picture based subtitle format used on BDs/HD-DVDs
Duration                                 : 58 s 642 ms
Bit rate                                 : 25.4 kb/s
Frame rate                               : 0.750 FPS
Count of elements                        : 44
Stream size                              : 182 KiB (0%)
Language                                 : English
Default                                  : No
Forced                                   : No

Text #3
ID                                       : 6
Format                                   : PGS
Muxing mode                              : zlib
Codec ID                                 : S_HDMV/PGS
Codec ID/Info                            : Picture based subtitle format used on BDs/HD-DVDs
Duration                                 : 56 s 473 ms
Bit rate                                 : 2 084 b/s
Frame rate                               : 0.071 FPS
Count of elements                        : 4
Stream size                              : 14.4 KiB (0%)
Language                                 : English
Default                                  : No
Forced                                   : No

Other Files in this Torrent
S00E06 - AkaKill! Theater #06 - Esdeath's Fun Torture Classroom.mkv
beta
Anime DDL+NZB mirror
Current Time: 20/05/2024 22:43



About/FAQs

Discord