File Size174.6 MB (183,099,828 bytes)
DownloadClickNUpload | DailyUploads | DownloadGG | GoFile | KrakenFiles | MdiaLoad | MultiUp
  • BdUpload
  • DownAce
  • Fichier
  • FileCloud
  • Filerio
  • FilesCdn
  • IndiShare
  • Kbagi
  • Turbobit
  • UpToBox
  • Uppit
| Uppit
HashesCRC32: DED5AFF6, MD5: BCC69DA579F10037735D5A5B13C19659, SHA1: 276C8124388CFBE69075C8351F295EC7E6CDA525, SHA256: 278DF99C58DD11817FE4706C2B0584E50FB87EAD6B4FBC75A37B86C5C55D1578, ED2K: 04476CD6ABE5A4958F3D1E41CC40E189
Screenshots
screenshot
SubtitlesAll Attachments | Signs [eng, PGS], eng [PGS], eng [PGS]
Additional Info
General
Unique ID                                : 187939248008063038949522537619061662378 (0x8D63C854F690F888B25A8A3A9E66E2AA)
Complete name                            : S00E13 - AkaKill! Theater #13 - New Hideout.mkv
Format                                   : Matroska
Format version                           : Version 4
File size                                : 175 MiB
Duration                                 : 1 min 2 s
Overall bit rate mode                    : Variable
Overall bit rate                         : 23.6 Mb/s
Frame rate                               : 23.976 FPS
Encoded date                             : 2017-05-18 17:08:16 UTC
Writing application                      : mkvmerge v7.1.0 ('Good Love') 64bit built on Jul 27 2014 13:06:55
Writing library                          : libebml v1.3.0 + libmatroska v1.4.1

Video
ID                                       : 1
Format                                   : AVC
Format/Info                              : Advanced Video Codec
Format profile                           : High@L4.1
Format settings                          : CABAC / 4 Ref Frames
Format settings, CABAC                   : Yes
Format settings, Reference frames        : 4 frames
Codec ID                                 : V_MPEG4/ISO/AVC
Duration                                 : 1 min 2 s
Bit rate mode                            : Variable
Bit rate                                 : 19.3 Mb/s
Maximum bit rate                         : 39.0 Mb/s
Width                                    : 1 920 pixels
Height                                   : 1 080 pixels
Display aspect ratio                     : 16:9
Frame rate mode                          : Constant
Frame rate                               : 23.976 (24000/1001) FPS
Color space                              : YUV
Chroma subsampling                       : 4:2:0
Bit depth                                : 8 bits
Scan type                                : Progressive
Bits/(Pixel*Frame)                       : 0.388
Time code of first frame                 : 02:11:29:0000000000
Stream size                              : 143 MiB (82%)
Title                                    : MPEG-4 AVC Video / 19999 kbps / 1080p / 23.976 fps / 16:9 / High Profile 4.1
Language                                 : Japanese
Default                                  : Yes
Forced                                   : No

Audio #1
ID                                       : 2
Format                                   : DTS XLL
Format/Info                              : Digital Theater Systems
Commercial name                          : DTS-HD Master Audio
Codec ID                                 : A_DTS
Duration                                 : 1 min 1 s
Bit rate mode                            : Variable
Bit rate                                 : 2 155 kb/s
Channel(s)                               : 2 channels
Channel layout                           : L R
Sampling rate                            : 48.0 kHz
Frame rate                               : 93.750 FPS (512 SPF)
Bit depth                                : 24 bits
Compression mode                         : Lossless
Delay relative to video                  : 1 s 3 ms
Stream size                              : 15.7 MiB (9%)
Title                                    : DTS-HD Master Audio / 2.0 / 48 kHz / 2153 kbps / 24-bit (DTS Core: 2.0 / 48 kHz / 1509 kbps / 24-bit)
Language                                 : English
Default                                  : Yes
Forced                                   : No

Audio #2
ID                                       : 3
Format                                   : DTS XLL
Format/Info                              : Digital Theater Systems
Commercial name                          : DTS-HD Master Audio
Codec ID                                 : A_DTS
Duration                                 : 1 min 1 s
Bit rate mode                            : Variable
Bit rate                                 : 2 192 kb/s
Channel(s)                               : 2 channels
Channel layout                           : L R
Sampling rate                            : 48.0 kHz
Frame rate                               : 93.750 FPS (512 SPF)
Bit depth                                : 24 bits
Compression mode                         : Lossless
Delay relative to video                  : 1 s 3 ms
Stream size                              : 16.0 MiB (9%)
Title                                    : DTS-HD Master Audio / 2.0 / 48 kHz / 2182 kbps / 24-bit (DTS Core: 2.0 / 48 kHz / 1509 kbps / 24-bit)
Language                                 : Japanese
Default                                  : No
Forced                                   : No

Text #1
ID                                       : 4
Format                                   : PGS
Muxing mode                              : zlib
Codec ID                                 : S_HDMV/PGS
Codec ID/Info                            : Picture based subtitle format used on BDs/HD-DVDs
Duration                                 : 1 min 0 s
Bit rate                                 : 2 966 b/s
Frame rate                               : 0.100 FPS
Count of elements                        : 6
Stream size                              : 21.7 KiB (0%)
Title                                    : Signs
Language                                 : English
Default                                  : Yes
Forced                                   : No

Text #2
ID                                       : 5
Format                                   : PGS
Muxing mode                              : zlib
Codec ID                                 : S_HDMV/PGS
Codec ID/Info                            : Picture based subtitle format used on BDs/HD-DVDs
Duration                                 : 1 min 0 s
Bit rate                                 : 15.4 kb/s
Frame rate                               : 0.599 FPS
Count of elements                        : 36
Stream size                              : 113 KiB (0%)
Language                                 : English
Default                                  : No
Forced                                   : No

Text #3
ID                                       : 6
Format                                   : PGS
Muxing mode                              : zlib
Codec ID                                 : S_HDMV/PGS
Codec ID/Info                            : Picture based subtitle format used on BDs/HD-DVDs
Duration                                 : 1 min 0 s
Bit rate                                 : 2 966 b/s
Frame rate                               : 0.100 FPS
Count of elements                        : 6
Stream size                              : 21.7 KiB (0%)
Language                                 : English
Default                                  : No
Forced                                   : No

Other Files in this Torrent
S00E13 - AkaKill! Theater #13 - New Hideout.mkv
beta
Anime DDL+NZB mirror
Current Time: 29/05/2024 20:48



About/FAQs

Discord