File Size232.1 MB (243,352,633 bytes)
DownloadClickNUpload | DailyUploads | DownloadGG | GoFile | KrakenFiles | MdiaLoad | MultiUp
  • BdUpload
  • DownAce
  • Fichier
  • FileCloud
  • Filerio
  • FilesCdn
  • IndiShare
  • Kbagi
  • Turbobit
  • UpToBox
  • Uppit
| Uppit
HashesCRC32: 067F83F2, MD5: FB77CE4DC3630011A6BFB02BBC657355, SHA1: 420F0C132CF59C3095158A8C8E55D741DE502980, SHA256: 8CE06B3A6881F5E9A08AF8DF999124B4F7124D16A3BCC3C24926889A4B101AE5, ED2K: 6A690481517FA5D1A038D3DE49D3EB9C
Screenshots
screenshot
SubtitlesAll Attachments | Signs [eng, PGS], eng [PGS], eng [PGS]
Additional Info
General
Unique ID                                : 186373968842361222401336767887194484569 (0x8C36521C54734007A1C2E9FB4B606F59)
Complete name                            : S00E05 - AkaKill! Theater #05 - Glasses.mkv
Format                                   : Matroska
Format version                           : Version 4
File size                                : 232 MiB
Duration                                 : 1 min 1 s
Overall bit rate mode                    : Variable
Overall bit rate                         : 31.9 Mb/s
Frame rate                               : 23.976 FPS
Encoded date                             : 2017-05-18 15:16:28 UTC
Writing application                      : mkvmerge v7.1.0 ('Good Love') 64bit built on Jul 27 2014 13:06:55
Writing library                          : libebml v1.3.0 + libmatroska v1.4.1

Video
ID                                       : 1
Format                                   : AVC
Format/Info                              : Advanced Video Codec
Format profile                           : High@L4.1
Format settings                          : CABAC / 4 Ref Frames
Format settings, CABAC                   : Yes
Format settings, Reference frames        : 4 frames
Codec ID                                 : V_MPEG4/ISO/AVC
Duration                                 : 1 min 1 s
Bit rate mode                            : Variable
Bit rate                                 : 27.5 Mb/s
Maximum bit rate                         : 39.0 Mb/s
Width                                    : 1 920 pixels
Height                                   : 1 080 pixels
Display aspect ratio                     : 16:9
Frame rate mode                          : Constant
Frame rate                               : 23.976 (24000/1001) FPS
Color space                              : YUV
Chroma subsampling                       : 4:2:0
Bit depth                                : 8 bits
Scan type                                : Progressive
Bits/(Pixel*Frame)                       : 0.554
Time code of first frame                 : 02:12:37:0000000000
Stream size                              : 200 MiB (86%)
Title                                    : MPEG-4 AVC Video / 27993 kbps / 1080p / 23.976 fps / 16:9 / High Profile 4.1
Language                                 : Japanese
Default                                  : Yes
Forced                                   : No

Audio #1
ID                                       : 2
Format                                   : DTS XLL
Format/Info                              : Digital Theater Systems
Commercial name                          : DTS-HD Master Audio
Codec ID                                 : A_DTS
Duration                                 : 1 min 1 s
Bit rate mode                            : Variable
Bit rate                                 : 2 152 kb/s
Channel(s)                               : 2 channels
Channel layout                           : L R
Sampling rate                            : 48.0 kHz
Frame rate                               : 93.750 FPS (512 SPF)
Bit depth                                : 24 bits
Compression mode                         : Lossless
Delay relative to video                  : 3 ms
Stream size                              : 15.7 MiB (7%)
Title                                    : DTS-HD Master Audio / 2.0 / 48 kHz / 2142 kbps / 24-bit (DTS Core: 2.0 / 48 kHz / 1509 kbps / 24-bit)
Language                                 : English
Default                                  : Yes
Forced                                   : No

Audio #2
ID                                       : 3
Format                                   : DTS XLL
Format/Info                              : Digital Theater Systems
Commercial name                          : DTS-HD Master Audio
Codec ID                                 : A_DTS
Duration                                 : 1 min 1 s
Bit rate mode                            : Variable
Bit rate                                 : 2 145 kb/s
Channel(s)                               : 2 channels
Channel layout                           : L R
Sampling rate                            : 48.0 kHz
Frame rate                               : 93.750 FPS (512 SPF)
Bit depth                                : 24 bits
Compression mode                         : Lossless
Delay relative to video                  : 3 ms
Stream size                              : 15.6 MiB (7%)
Title                                    : DTS-HD Master Audio / 2.0 / 48 kHz / 2181 kbps / 24-bit (DTS Core: 2.0 / 48 kHz / 1509 kbps / 24-bit)
Language                                 : Japanese
Default                                  : No
Forced                                   : No

Text #1
ID                                       : 4
Format                                   : PGS
Muxing mode                              : zlib
Codec ID                                 : S_HDMV/PGS
Codec ID/Info                            : Picture based subtitle format used on BDs/HD-DVDs
Duration                                 : 1 min 0 s
Bit rate                                 : 4 256 b/s
Frame rate                               : 0.200 FPS
Count of elements                        : 12
Stream size                              : 31.2 KiB (0%)
Title                                    : Signs
Language                                 : English
Default                                  : Yes
Forced                                   : No

Text #2
ID                                       : 5
Format                                   : PGS
Muxing mode                              : zlib
Codec ID                                 : S_HDMV/PGS
Codec ID/Info                            : Picture based subtitle format used on BDs/HD-DVDs
Duration                                 : 1 min 0 s
Bit rate                                 : 38.0 kb/s
Frame rate                               : 0.833 FPS
Count of elements                        : 50
Stream size                              : 279 KiB (0%)
Language                                 : English
Default                                  : No
Forced                                   : No

Text #3
ID                                       : 6
Format                                   : PGS
Muxing mode                              : zlib
Codec ID                                 : S_HDMV/PGS
Codec ID/Info                            : Picture based subtitle format used on BDs/HD-DVDs
Duration                                 : 1 min 0 s
Bit rate                                 : 4 256 b/s
Frame rate                               : 0.200 FPS
Count of elements                        : 12
Stream size                              : 31.2 KiB (0%)
Language                                 : English
Default                                  : No
Forced                                   : No

Other Files in this Torrent
S00E05 - AkaKill! Theater #05 - Glasses.mkv
beta
Anime DDL+NZB mirror
Current Time: 29/05/2024 21:01



About/FAQs

Discord