File Size286.5 MB (300,366,272 bytes)
DownloadClickNUpload | DailyUploads | DownloadGG | GoFile | KrakenFiles | MdiaLoad | MultiUp
  • BdUpload
  • DownAce
  • Fichier
  • FileCloud
  • Filerio
  • FilesCdn
  • IndiShare
  • Kbagi
  • Turbobit
  • UpToBox
  • Uppit
| Uppit
HashesCRC32: 56C48BB2, MD5: B482D50FD883984328A4AC55B988D202, SHA1: C9B54808F9B730BE777B6FF5A4F009ECB31DE393, SHA256: 35BF460CF665E7D7B12DF2A22312000E7E3F15CA743A4DABFB82C6C626B13AC3, ED2K: 7DF258F1EFE03476BEF6AC67BEA04C0A
Screenshots
screenshot
SubtitlesAll Attachments | Signs [eng, PGS], eng [PGS], eng [PGS]
Additional Info
General
Unique ID                                : 177692149512621158313955034575664735382 (0x85AE435EA4A225D2B122B958D3BA6496)
Complete name                            : S00E01 - AkaKill! Theater #01 - Tatsumi and Leone.mkv
Format                                   : Matroska
Format version                           : Version 4
File size                                : 286 MiB
Duration                                 : 1 min 1 s
Overall bit rate mode                    : Variable
Overall bit rate                         : 39.3 Mb/s
Frame rate                               : 23.976 FPS
Encoded date                             : 2017-05-18 14:59:41 UTC
Writing application                      : mkvmerge v7.1.0 ('Good Love') 64bit built on Jul 27 2014 13:06:55
Writing library                          : libebml v1.3.0 + libmatroska v1.4.1

Video
ID                                       : 1
Format                                   : AVC
Format/Info                              : Advanced Video Codec
Format profile                           : High@L4.1
Format settings                          : CABAC / 4 Ref Frames
Format settings, CABAC                   : Yes
Format settings, Reference frames        : 4 frames
Codec ID                                 : V_MPEG4/ISO/AVC
Duration                                 : 1 min 1 s
Bit rate mode                            : Variable
Bit rate                                 : 35.0 Mb/s
Maximum bit rate                         : 39.0 Mb/s
Width                                    : 1 920 pixels
Height                                   : 1 080 pixels
Display aspect ratio                     : 16:9
Frame rate mode                          : Constant
Frame rate                               : 23.976 (24000/1001) FPS
Color space                              : YUV
Chroma subsampling                       : 4:2:0
Bit depth                                : 8 bits
Scan type                                : Progressive
Bits/(Pixel*Frame)                       : 0.704
Time code of first frame                 : 02:11:30:0000000000
Stream size                              : 255 MiB (89%)
Title                                    : MPEG-4 AVC Video / 35994 kbps / 1080p / 23.976 fps / 16:9 / High Profile 4.1
Language                                 : Japanese
Default                                  : Yes
Forced                                   : No

Audio #1
ID                                       : 2
Format                                   : DTS XLL
Format/Info                              : Digital Theater Systems
Commercial name                          : DTS-HD Master Audio
Codec ID                                 : A_DTS
Duration                                 : 1 min 1 s
Bit rate mode                            : Variable
Bit rate                                 : 2 139 kb/s
Channel(s)                               : 2 channels
Channel layout                           : L R
Sampling rate                            : 48.0 kHz
Frame rate                               : 93.750 FPS (512 SPF)
Bit depth                                : 24 bits
Compression mode                         : Lossless
Delay relative to video                  : 3 ms
Stream size                              : 15.6 MiB (5%)
Title                                    : DTS-HD Master Audio / 2.0 / 48 kHz / 2153 kbps / 24-bit (DTS Core: 2.0 / 48 kHz / 1509 kbps / 24-bit)
Language                                 : English
Default                                  : Yes
Forced                                   : No

Audio #2
ID                                       : 3
Format                                   : DTS XLL
Format/Info                              : Digital Theater Systems
Commercial name                          : DTS-HD Master Audio
Codec ID                                 : A_DTS
Duration                                 : 1 min 1 s
Bit rate mode                            : Variable
Bit rate                                 : 2 170 kb/s
Channel(s)                               : 2 channels
Channel layout                           : L R
Sampling rate                            : 48.0 kHz
Frame rate                               : 93.750 FPS (512 SPF)
Bit depth                                : 24 bits
Compression mode                         : Lossless
Delay relative to video                  : 3 ms
Stream size                              : 15.8 MiB (6%)
Title                                    : DTS-HD Master Audio / 2.0 / 48 kHz / 2182 kbps / 24-bit (DTS Core: 2.0 / 48 kHz / 1509 kbps / 24-bit)
Language                                 : Japanese
Default                                  : No
Forced                                   : No

Text #1
ID                                       : 4
Format                                   : PGS
Muxing mode                              : zlib
Codec ID                                 : S_HDMV/PGS
Codec ID/Info                            : Picture based subtitle format used on BDs/HD-DVDs
Duration                                 : 58 s 934 ms
Bit rate                                 : 2 548 b/s
Frame rate                               : 0.102 FPS
Count of elements                        : 6
Stream size                              : 18.3 KiB (0%)
Title                                    : Signs
Language                                 : English
Default                                  : Yes
Forced                                   : No

Text #2
ID                                       : 5
Format                                   : PGS
Muxing mode                              : zlib
Codec ID                                 : S_HDMV/PGS
Codec ID/Info                            : Picture based subtitle format used on BDs/HD-DVDs
Duration                                 : 58 s 934 ms
Bit rate                                 : 16.9 kb/s
Frame rate                               : 0.526 FPS
Count of elements                        : 31
Stream size                              : 122 KiB (0%)
Language                                 : English
Default                                  : No
Forced                                   : No

Text #3
ID                                       : 6
Format                                   : PGS
Muxing mode                              : zlib
Codec ID                                 : S_HDMV/PGS
Codec ID/Info                            : Picture based subtitle format used on BDs/HD-DVDs
Duration                                 : 58 s 934 ms
Bit rate                                 : 2 548 b/s
Frame rate                               : 0.102 FPS
Count of elements                        : 6
Stream size                              : 18.3 KiB (0%)
Language                                 : English
Default                                  : No
Forced                                   : No

Other Files in this Torrent
S00E01 - AkaKill! Theater #01 - Tatsumi and Leone.mkv
beta
Anime DDL+NZB mirror
Current Time: 29/05/2024 21:12



About/FAQs

Discord