Extras/[AnimeRG] Pokémon - 0038 - Electric Soldier Porygon [SEIZURE EPISODE] [1080p] [Inverti Fandub] [x265] [pseudo].mkv


File Size226.3 MB (237,246,154 bytes)
DownloadClickNUpload | DiskoKosmiko | Go4Up
  • DownAce
  • FileFactory
  • KatFile
  • Oboom
  • OwnDrives
  • Share-Online
  • TusFiles
  • UploadGig
  • Uppit
  • UsersCloud
| Jheberg | MultiUp | OpenLoad | Sendspace | SolidFiles | ZippyShare
HashesCRC32: 08E76873, MD5: FB14BDEB9163BF59B98D66A2761BDD06, SHA1: CF82412F34190AE14885B1C92AD39D6CFD380C19, SHA256: C958EE4A6E259492B6033115203526340DA4ED80FBEB8CA0E5EA2358883539AC, ED2K: CF6BF87F389DE3C15007332DE00925AA
Screenshots
screenshotscreenshotscreenshotscreenshotscreenshot
Additional Info
General
Unique ID                                : 170169937051125309570267464917972569928 (0x800589A9563BFE54AAD6EA8D826A4F48)
Complete name                            : [AnimeRG] Pokémon - 0038 - Electric Soldier Porygon [SEIZURE EPISODE] [1080p] [Inverti Fandub] [x265] [pseudo].mkv
Format                                   : Matroska
Format version                           : Version 4 / Version 2
File size                                : 226 MiB
Duration                                 : 19 min 22 s
Overall bit rate                         : 1 633 kb/s
Encoded date                             : UTC 2018-06-14 16:20:14
Writing application                      : mkvmerge v15.0.0 ('Duel with the Devil') 64-bit
Writing library                          : libebml v1.3.5 + libmatroska v1.4.5
Writing frontend                         : StaxRip v1.7.0.0

Video
ID                                       : 1
Format                                   : HEVC
Format/Info                              : High Efficiency Video Coding
Format profile                           : Main@L5.1@Main
Codec ID                                 : V_MPEGH/ISO/HEVC
Duration                                 : 19 min 21 s
Bit rate                                 : 1 513 kb/s
Width                                    : 1 440 pixels
Height                                   : 1 088 pixels
Display aspect ratio                     : 4:3
Frame rate mode                          : Constant
Frame rate                               : 25.000 FPS
Standard                                 : NTSC
Color space                              : YUV
Chroma subsampling                       : 4:2:0
Bit depth                                : 8 bits
Bits/(Pixel*Frame)                       : 0.039
Stream size                              : 210 MiB (93%)
Default                                  : Yes
Forced                                   : No
Color range                              : Limited
Color primaries                          : BT.709
Transfer characteristics                 : BT.709
Matrix coefficients                      : BT.709

Audio
ID                                       : 2
Format                                   : AAC
Format/Info                              : Advanced Audio Codec
Format profile                           : LC
Codec ID                                 : A_AAC
Duration                                 : 19 min 22 s
Bit rate                                 : 118 kb/s
Channel(s)                               : 2 channels
Channel positions                        : Front: L R
Sampling rate                            : 44.1 kHz
Frame rate                               : 43.066 FPS (1024 spf)
Compression mode                         : Lossy
Delay relative to video                  : 22 ms
Stream size                              : 16.3 MiB (7%)
Title                                    : English Stereo
Language                                 : English
Default                                  : Yes
Forced                                   : No

Other Files in this Torrent
Extras/[AnimeRG] Pokémon - 0038 - Electric Soldier Porygon [SEIZURE EPISODE] [1080p] [Inverti Fandub] [x265] [pseudo].mkv
beta
Anime DDL+NZB mirror
Current Time: 16/07/2024 15:01



About/FAQs

Discord