File Size199.3 MB (208,935,903 bytes)
DownloadClickNUpload | DiskoKosmiko | Go4Up
  • DownAce
  • FileFactory
  • KatFile
  • Oboom
  • OwnDrives
  • Share-Online
  • TusFiles
  • UploadGig
  • Uppit
  • UsersCloud
| Jheberg | MultiUp | OpenLoad | Sendspace | SolidFiles | ZippyShare
HashesCRC32: 09023A08, MD5: D3589C43170C1BE829A84C45BAF227C2, SHA1: 4FCF6CAC31D49C76FF51FC2BE02793455DAFF6B0, SHA256: 4E0DFB7ED6A70B45C61B86DBECA78A9D324A8F19D3FE92834050D02D30E7F51F, ED2K: 5C68FC45885F06CD0AFBB4B609774A24
Screenshots
screenshotscreenshotscreenshotscreenshotscreenshot
SubtitlesAll Attachments | English [eng, SRT], español [spa, SRT], español [spa, SRT], français [fre, SRT], Deutsch [ger, SRT], italiano [ita, SRT], português [por, SRT], português [por, SRT], polski [pol, SRT], Türkçe [tur, SRT], svenska [swe, SRT], svenska [swe, SRT], suomi [fin, SRT], suomi [fin, SRT], Nederlands [dut, SRT], norsk [nob, SRT], עברית [heb, SRT], العربية [ara, SRT], العربية [ara, SRT]
Additional Info
General
Unique ID                                : 178840233110901055486978834013564732607 (0x868B6042E8A965B18466E99399D084BF)
Complete name                            : [AnimeRG] Pokémon - 0057 - Pokémon Paparazzi [1080p] [x265] [pseudo].mkv
Format                                   : Matroska
Format version                           : Version 4 / Version 2
File size                                : 199 MiB
Duration                                 : 22 min 22 s
Overall bit rate                         : 1 245 kb/s
Encoded date                             : UTC 2018-06-14 06:24:00
Writing application                      : mkvmerge v15.0.0 ('Duel with the Devil') 64-bit
Writing library                          : libebml v1.3.5 + libmatroska v1.4.5
Writing frontend                         : StaxRip v1.7.0.0

Video
ID                                       : 1
Format                                   : HEVC
Format/Info                              : High Efficiency Video Coding
Format profile                           : Main@L5.1@Main
Codec ID                                 : V_MPEGH/ISO/HEVC
Duration                                 : 22 min 22 s
Bit rate                                 : 1 164 kb/s
Width                                    : 1 440 pixels
Height                                   : 1 080 pixels
Display aspect ratio                     : 4:3
Frame rate mode                          : Constant
Frame rate                               : 23.976 (24000/1001) FPS
Standard                                 : NTSC
Color space                              : YUV
Chroma subsampling                       : 4:2:0
Bit depth                                : 8 bits
Bits/(Pixel*Frame)                       : 0.031
Stream size                              : 186 MiB (94%)
Default                                  : Yes
Forced                                   : No
Color range                              : Limited
Color primaries                          : BT.709
Transfer characteristics                 : BT.709
Matrix coefficients                      : BT.709

Audio
ID                                       : 2
Format                                   : AAC
Format/Info                              : Advanced Audio Codec
Format profile                           : LC
Codec ID                                 : A_AAC
Duration                                 : 22 min 22 s
Bit rate                                 : 76.0 kb/s
Channel(s)                               : 2 channels
Channel positions                        : Front: L R
Sampling rate                            : 48.0 kHz
Frame rate                               : 46.875 FPS (1024 spf)
Compression mode                         : Lossy
Delay relative to video                  : 20 ms
Stream size                              : 12.2 MiB (6%)
Title                                    : English Stereo
Language                                 : English
Default                                  : Yes
Forced                                   : No

Text #1
ID                                       : 3
Format                                   : UTF-8
Codec ID                                 : S_TEXT/UTF8
Codec ID/Info                            : UTF-8 Plain Text
Duration                                 : 20 min 16 s
Bit rate                                 : 84 b/s
Count of elements                        : 368
Stream size                              : 12.6 KiB (0%)
Title                                    : English
Language                                 : English
Default                                  : No
Forced                                   : No

Text #2
ID                                       : 4
Format                                   : UTF-8
Codec ID                                 : S_TEXT/UTF8
Codec ID/Info                            : UTF-8 Plain Text
Duration                                 : 21 min 15 s
Bit rate                                 : 82 b/s
Count of elements                        : 362
Stream size                              : 12.8 KiB (0%)
Title                                    : español
Language                                 : Spanish
Default                                  : No
Forced                                   : No

Text #3
ID                                       : 5
Format                                   : UTF-8
Codec ID                                 : S_TEXT/UTF8
Codec ID/Info                            : UTF-8 Plain Text
Duration                                 : 19 min 13 s
Bit rate                                 : 89 b/s
Count of elements                        : 344
Stream size                              : 12.6 KiB (0%)
Title                                    : español
Language                                 : Spanish
Default                                  : No
Forced                                   : No

Text #4
ID                                       : 6
Format                                   : UTF-8
Codec ID                                 : S_TEXT/UTF8
Codec ID/Info                            : UTF-8 Plain Text
Duration                                 : 20 min 16 s
Bit rate                                 : 86 b/s
Count of elements                        : 348
Stream size                              : 12.9 KiB (0%)
Title                                    : français
Language                                 : French
Default                                  : No
Forced                                   : No

Text #5
ID                                       : 7
Format                                   : UTF-8
Codec ID                                 : S_TEXT/UTF8
Codec ID/Info                            : UTF-8 Plain Text
Duration                                 : 20 min 16 s
Bit rate                                 : 89 b/s
Count of elements                        : 353
Stream size                              : 13.3 KiB (0%)
Title                                    : Deutsch
Language                                 : German
Default                                  : No
Forced                                   : No

Text #6
ID                                       : 8
Format                                   : UTF-8
Codec ID                                 : S_TEXT/UTF8
Codec ID/Info                            : UTF-8 Plain Text
Duration                                 : 22 min 15 s
Bit rate                                 : 80 b/s
Count of elements                        : 331
Stream size                              : 13.1 KiB (0%)
Title                                    : italiano
Language                                 : Italian
Default                                  : No
Forced                                   : No

Text #7
ID                                       : 9
Format                                   : UTF-8
Codec ID                                 : S_TEXT/UTF8
Codec ID/Info                            : UTF-8 Plain Text
Duration                                 : 20 min 16 s
Bit rate                                 : 80 b/s
Count of elements                        : 351
Stream size                              : 12.0 KiB (0%)
Title                                    : português
Language                                 : Portuguese
Default                                  : No
Forced                                   : No

Text #8
ID                                       : 10
Format                                   : UTF-8
Codec ID                                 : S_TEXT/UTF8
Codec ID/Info                            : UTF-8 Plain Text
Duration                                 : 19 min 14 s
Bit rate                                 : 87 b/s
Count of elements                        : 347
Stream size                              : 12.3 KiB (0%)
Title                                    : português
Language                                 : Portuguese
Default                                  : No
Forced                                   : No

Text #9
ID                                       : 11
Format                                   : UTF-8
Codec ID                                 : S_TEXT/UTF8
Codec ID/Info                            : UTF-8 Plain Text
Duration                                 : 22 min 16 s
Bit rate                                 : 74 b/s
Count of elements                        : 341
Stream size                              : 12.1 KiB (0%)
Title                                    : polski
Language                                 : Polish
Default                                  : No
Forced                                   : No

Text #10
ID                                       : 12
Format                                   : UTF-8
Codec ID                                 : S_TEXT/UTF8
Codec ID/Info                            : UTF-8 Plain Text
Duration                                 : 19 min 55 s
Bit rate                                 : 71 b/s
Count of elements                        : 286
Stream size                              : 10.4 KiB (0%)
Title                                    : Türkçe
Language                                 : Turkish
Default                                  : No
Forced                                   : No

Text #11
ID                                       : 13
Format                                   : UTF-8
Codec ID                                 : S_TEXT/UTF8
Codec ID/Info                            : UTF-8 Plain Text
Duration                                 : 21 min 16 s
Bit rate                                 : 88 b/s
Count of elements                        : 348
Stream size                              : 13.8 KiB (0%)
Title                                    : svenska
Language                                 : Swedish
Default                                  : No
Forced                                   : No

Text #12
ID                                       : 14
Format                                   : UTF-8
Codec ID                                 : S_TEXT/UTF8
Codec ID/Info                            : UTF-8 Plain Text
Duration                                 : 20 min 16 s
Bit rate                                 : 88 b/s
Count of elements                        : 354
Stream size                              : 13.1 KiB (0%)
Title                                    : svenska
Language                                 : Swedish
Default                                  : No
Forced                                   : No

Text #13
ID                                       : 15
Format                                   : UTF-8
Codec ID                                 : S_TEXT/UTF8
Codec ID/Info                            : UTF-8 Plain Text
Duration                                 : 1 s 752 ms
Bit rate                                 : 27 b/s
Count of elements                        : 1
Stream size                              : 6.00 Bytes (0%)
Title                                    : suomi
Language                                 : Finnish
Default                                  : No
Forced                                   : Yes

Text #14
ID                                       : 16
Format                                   : UTF-8
Codec ID                                 : S_TEXT/UTF8
Codec ID/Info                            : UTF-8 Plain Text
Duration                                 : 21 min 16 s
Bit rate                                 : 71 b/s
Count of elements                        : 333
Stream size                              : 11.1 KiB (0%)
Title                                    : suomi
Language                                 : Finnish
Default                                  : No
Forced                                   : No

Text #15
ID                                       : 17
Format                                   : UTF-8
Codec ID                                 : S_TEXT/UTF8
Codec ID/Info                            : UTF-8 Plain Text
Duration                                 : 20 min 16 s
Bit rate                                 : 86 b/s
Count of elements                        : 344
Stream size                              : 12.9 KiB (0%)
Title                                    : Nederlands
Language                                 : Dutch
Default                                  : No
Forced                                   : No

Text #16
ID                                       : 18
Format                                   : UTF-8
Codec ID                                 : S_TEXT/UTF8
Codec ID/Info                            : UTF-8 Plain Text
Duration                                 : 21 min 16 s
Bit rate                                 : 73 b/s
Count of elements                        : 273
Stream size                              : 11.5 KiB (0%)
Title                                    : norsk
Language                                 : Norwegian Bokmal
Default                                  : No
Forced                                   : No

Text #17
ID                                       : 19
Format                                   : UTF-8
Codec ID                                 : S_TEXT/UTF8
Codec ID/Info                            : UTF-8 Plain Text
Duration                                 : 20 min 16 s
Bit rate                                 : 88 b/s
Count of elements                        : 237
Stream size                              : 13.1 KiB (0%)
Title                                    : עברית
Language                                 : Hebrew
Default                                  : No
Forced                                   : No

Text #18
ID                                       : 20
Format                                   : UTF-8
Codec ID                                 : S_TEXT/UTF8
Codec ID/Info                            : UTF-8 Plain Text
Duration                                 : 1 s 794 ms
Bit rate                                 : 71 b/s
Count of elements                        : 1
Stream size                              : 16.0 Bytes (0%)
Title                                    : العربية
Language                                 : Arabic
Default                                  : No
Forced                                   : Yes

Text #19
ID                                       : 21
Format                                   : UTF-8
Codec ID                                 : S_TEXT/UTF8
Codec ID/Info                            : UTF-8 Plain Text
Duration                                 : 21 min 16 s
Bit rate                                 : 153 b/s
Count of elements                        : 374
Stream size                              : 23.9 KiB (0%)
Title                                    : العربية
Language                                 : Arabic
Default                                  : No
Forced                                   : No

Other Files in this Torrent
[AnimeRG] Pokémon - 0057 - Pokémon Paparazzi [1080p] [x265] [pseudo].mkv
beta
Anime DDL+NZB mirror
Current Time: 14/07/2024 10:58



About/FAQs

Discord